BitTorrentTracker PerecTracker.org
BitTorrentTracker PerecTracker.org
    
Регистрация  ·  Вход
 
 · 
Забыли пароль?

  • Стая / The Pack (Ник Робертсон / Nic Robertson) [2015, Австралия, ужасы, триллер, WEB-DLRip] DVO (den904 & DeadSno) + Original Eng

    Ответить на тему
     
    Автор Сообщение

    Light

    Создавать темы 30-Июн-2016 15:17

           

    [Цитировать]

    Стая / The Pack
    Страна: Австралия
    Жанр: ужасы, триллер
    Год выпуска: 2015
    Продолжительность: 01:24:22
    Перевод: Любительский (двухголосый закадровый) den904 & DeadSno
    Cубтитры: нет
    Оригинальная аудиодорожка: английский
    Режиссер: Ник Робертсон / Nic Robertson
    В ролях: Анна Лизе Филлипс, Джек Кэмпбелл, Киран Томас Макнамара, Кэти Мур, Хэмиш Филлипс, Чарльз Майер
    Описание: У Адама Уилсона большие проблемы. Скот на сельском ранчо побит, ветеринарный бизнес жены не удается, будущее для семьи с двумя детьми не слишком определено. А тут еще и банк-кредитор угрожает забрать в счет долгов имущество. Но Адам уверен, что все будет хорошо. Этим вечером он устраивает праздничный пир, но мрачные тени скрыты и за пределами фермы. Большая стая голодных свирепых диких собак бродит по округе...
    Сэмпл: http://multi-up.com/1107633
    Качество видео: WEB-DLRip
    Формат видео: AVI
    Видео: Xvid 720x304 25fps 1 755 Kbps
    Аудио: Dolby AC3 48000Hz stereo 192kbps
    Аудио 2: Dolby AC3 48000Hz 6ch 384kbps

    MediaInfo

    Format : AVI
    Format/Info : Audio Video Interleave
    File size : 1.38 GiB
    Duration : 1h 24mn
    Overall bit rate : 2 346 Kbps
    Writing application : VirtualDubModRus 1.5.10.2 (build 2542/release)
    Writing library : VirtualDubMod build 2542/release
    Video
    ID : 0
    Format : MPEG-4 Visual
    Format profile : Advanced Simple@L5
    Format settings, BVOP : Yes
    Format settings, QPel : No
    Format settings, GMC : No warppoints
    Format settings, Matrix : Default (H.263)
    Codec ID : XVID
    Codec ID/Hint : XviD
    Duration : 1h 24mn
    Bit rate : 1 755 Kbps
    Width : 720 pixels
    Height : 304 pixels
    Display aspect ratio : 2.35:1
    Frame rate : 25.000 fps
    Color space : YUV
    Chroma subsampling : 4:2:0
    Bit depth : 8 bits
    Scan type : Progressive
    Compression mode : Lossy
    Bits/(Pixel*Frame) : 0.321
    Stream size : 1.03 GiB (75%)
    Writing library : XviD 66
    Audio #1
    ID : 1
    Format : AC-3
    Format/Info : Audio Coding 3
    Mode extension : CM (complete main)
    Format settings, Endianness : Big
    Codec ID : 2000
    Duration : 1h 24mn
    Bit rate mode : Constant
    Bit rate : 192 Kbps
    Channel count : 2 channels
    Channel positions : Front: L R
    Sampling rate : 48.0 KHz
    Bit depth : 16 bits
    Compression mode : Lossy
    Stream size : 116 MiB (8%)
    Alignment : Split accross interleaves
    Interleave, duration : 40 ms (1.00 video frame)
    Interleave, preload duration : 500 ms
    Audio #2
    ID : 2
    Format : AC-3
    Format/Info : Audio Coding 3
    Mode extension : CM (complete main)
    Format settings, Endianness : Big
    Codec ID : 2000
    Duration : 1h 24mn
    Bit rate mode : Constant
    Bit rate : 384 Kbps
    Channel count : 6 channels
    Channel positions : Front: L C R, Side: L R, LFE
    Sampling rate : 48.0 KHz
    Bit depth : 16 bits
    Compression mode : Lossy
    Stream size : 232 MiB (16%)
    Alignment : Split accross interleaves
    Interleave, duration : 40 ms (1.00 video frame)
    Interleave, preload duration : 500 ms

    Скриншот c названием фильма

    Скриншоты

    Скачать .torrent

    Скачать торрент-файл бесплатно и на максимальной скорости!

    Как скачивать? · Что такое торрент? · Рейтинг и ограничения

    !ВНИМАНИЕ!
    Сайт не распространяет и не хранит электронные версии произведений, а занимается лишь лишь предоставлением доступа к создаваемому пользователями каталогу ссылок на торрент-файлы, которые содержат только списки хеш-сумм, убедительная просьба с жалобами обращаться напрямую к пользователю. Файлы для обмена на трекере предоставлены пользователями сайта, и администрация не несёт ответственности за их содержание. Просьба не заливать файлы, защищенные авторскими правами, а также файлы нелегального содержания!


    _________________
    [Профиль] [ЛС]
    Показать сообщения:    
    Ответить на тему

    Текущее время: Сегодня, в 10:41

    Часовой пояс: GMT + 2



    Вы не можете начинать темы
    Вы не можете отвечать на сообщения
    Вы не можете редактировать свои сообщения
    Вы не можете удалять свои сообщения
    Вы не можете голосовать в опросах
    Вы не можете прикреплять файлы к сообщениям
    Вы не можете скачивать файлы