BitTorrentTracker PerecTracker.org
BitTorrentTracker PerecTracker.org
    
Регистрация  ·  Вход
 
 · 
Забыли пароль?

  • Большие глаза / Big Eyes (Тим Бёртон / Tim Burton) [2014, США, Канада, драма, мелодрама, криминал, биография, HDRip] AVO (Немахов)

    Ответить на тему
     
    Автор Сообщение

    Light

    Создавать темы 30-Июн-2016 11:05

           

    [Цитировать]

    Большие глаза / Big EyesСтрана: США, Канада
    Жанр: драма, мелодрама, криминал, биография
    Год выпуска: 2014
    Продолжительность: 01:45:44
    Перевод: Авторский (одноголосый закадровый) Юрий Немахов
    Cубтитры: нет
    Режиссер: Тим Бёртон / Tim Burton
    В ролях: Эми Адамс, Кристоф Вальц, Кристен Риттер, Джейсон Шварцман, Дэнни Хьюстон, Теренс Стэмп, Джон Полито, Элизабетта Фантоне, Джеймс Саито, Гуидо Фурлани
    Описание: Яркая и цветущая Америка 50-х. В сочных красках Сан-Франциско зарождается то, что разрушит традиционный взгляд на искусство и бесповоротно изменит то, как выглядит наша жизнь. Появившийся из ниоткуда художник Уолтер Кин придумал поп-арт. Его необычные картины, изображающие трогательных детей с огромными глазами, произвели настоящий фурор и буквально заполонили весь мир. Их печатают на календарях, открытках, домохозяйки щеголяют в фартуках с их изображением. Уолтер становится королем современного искусства, одним из самых известных арт-деятелей планеты.
    Но на пике славы художника его скромная супруга Маргарет вдруг утверждает, что Уолтер — мошенник, и именно она — автор знаменитых картин. Неожиданно открываются шокирующие подробности жизни четы Кин. Весь мир замер в ожидании ответа на вопрос: кто же все-таки тот гений, чьи смелые и оригинальные картины украшают теперь каждую гостиную от Парижа до Аляски?

    Качество видео: HDRip
    Формат видео: AVI
    Видео кодек: XviD
    Аудио кодек: AC3
    Видео: 704x400 (1.76:1), 23.976 fps, XviD build 73 ~1499 kbps avg, 0.22 bit/pixel
    Аудио: 48 kHz, AC3 Dolby Digital, 3/2 (L,C,R,l,r) + LFE ch, ~448 kbps

    Доп.инфо

    за видеоряд спасибо Scarabey
    за Немахова спасибо timur

    MediaInfo

    Полное имя : Большие глаза.avi
    Формат : AVI
    Формат/Информация : Audio Video Interleave
    Размер файла : 1,45 Гбайт
    Продолжительность : 1 ч. 45 м.
    Общий поток : 1957 Кбит/сек
    Программа кодирования : VirtualDubMod 1.5.10.3 | www.virtualdub-fr.org || (build 2550/release)
    Библиотека кодирования : VirtualDubMod build 2550/release
    Видео
    Идентификатор : 0
    Формат : MPEG-4 Visual
    Профиль формата : Advanced Simple@L5
    Параметр BVOP формата : 1
    Параметр QPel формата : Нет
    Параметр GMC формата : Без точки перехода
    Параметр матрицы формата : Выборочная
    Идентификатор кодека : XVID
    Идентификатор кодека/Подсказка : XviD
    Продолжительность : 1 ч. 45 м.
    Битрейт : 1500 Кбит/сек
    Ширина : 704 пикселя
    Высота : 400 пикселей
    Соотношение сторон : 16:9
    Частота кадров : 23,976 кадра/сек
    Цветовое пространство : YUV
    Субдискретизация насыщенности : 4:2:0
    Битовая глубина : 8 бит
    Тип развёртки : Прогрессивная
    Метод сжатия : С потерями
    Бит/(Пиксели*Кадры) : 0.222
    Размер потока : 1,11 Гбайт (77%)
    Библиотека кодирования : XviD 73
    Аудио
    Идентификатор : 1
    Формат : AC-3
    Формат/Информация : Audio Coding 3
    Расширение режима : CM (complete main)
    Параметр Endianness формата : Big
    Идентификатор кодека : 2000
    Продолжительность : 1 ч. 45 м.
    Вид битрейта : Постоянный
    Битрейт : 448 Кбит/сек
    Каналы : 6 каналов
    Расположение каналов : Front: L C R, Side: L R, LFE
    Частота : 48,0 КГц
    Метод сжатия : С потерями
    Размер потока : 339 Мбайт (23%)
    Выравнивание : Разделение по промежуткам
    Продолжительность промежутка : 42 мс. (1,00 видеокадр)
    Время предзагрузки промежутка : 500 мс.

    Скриншоты

    Скачать .torrent

    Скачать торрент-файл бесплатно и на максимальной скорости!

    Как скачивать? · Что такое торрент? · Рейтинг и ограничения

    !ВНИМАНИЕ!
    Сайт не распространяет и не хранит электронные версии произведений, а занимается лишь лишь предоставлением доступа к создаваемому пользователями каталогу ссылок на торрент-файлы, которые содержат только списки хеш-сумм, убедительная просьба с жалобами обращаться напрямую к пользователю. Файлы для обмена на трекере предоставлены пользователями сайта, и администрация не несёт ответственности за их содержание. Просьба не заливать файлы, защищенные авторскими правами, а также файлы нелегального содержания!


    _________________
    [Профиль] [ЛС]
    Показать сообщения:    
    Ответить на тему

    Текущее время: Сегодня, в 16:44

    Часовой пояс: GMT + 2



    Вы не можете начинать темы
    Вы не можете отвечать на сообщения
    Вы не можете редактировать свои сообщения
    Вы не можете удалять свои сообщения
    Вы не можете голосовать в опросах
    Вы не можете прикреплять файлы к сообщениям
    Вы не можете скачивать файлы