BitTorrentTracker PerecTracker.org
BitTorrentTracker PerecTracker.org
    
Регистрация  ·  Вход
 
 · 
Забыли пароль?

  • Бэтмен против Супермена: На заре справедливости / Batman v Superman: Dawn of Justice (Зак Снайдер / Zack Snyder ) [2016, США, Фантастика, боевик, приключения, WEB-DL, HD (720p)] DUB + Original + sub (rus)

    Ответить на тему
     
    Автор Сообщение

    rechyn

    Создавать темы 30-Июн-2016 02:51

           

    [Цитировать]

    Бэтмен против Супермена: На заре справедливости / Batman v Superman: Dawn of Justice
    «Who will win?»
    6.912 / 10 7.00 / 10
    -Год выпуска: 2016
    Страна: США
    Жанр: Фантастика, боевик, приключения
    Продолжительность: 02:31:38
    Перевод: Дублированный (iTunes)
    Оригинальная аудиодорожка: Есть
    Cубтитры: Русские, Русские форсированные
    Режиссёр: Зак Снайдер
    Сценарий: Крис Террио, Дэвид С. Гойер, Боб Кейн
    Продюсер: Чарльз Ровен, Дебора Снайдер, Закария Алауи
    Оператор: Ларри Фонг
    Композитор: Джанки Экс-Эл, Ханс Циммер
    Художник: Патрик Татопулос, Патрицио М. Фаррелл, Лорин Флемминг
    Монтаж: Дэвид Бреннер
    В ролях: Генри Кавилл, Бен Аффлек, Галь Гадот, Эми Адамс, Джесси Айзенберг, Джереми Айронс, Дайан Лэйн, Лоренс Фишбёрн, Холли Хантер, Скут МакНэри
    Бюджет: $250 000 000
    Сборы в США: $330 360 194
    Сборы в мире: + $542 302 437 = $872 662 631
    Сборы в России: $12 811 621
    Мировая премьера: 12 марта 2016
    Премьера (РФ): 24 марта 2016, «Каро-Премьер»
    Описание: Опасаясь, что действия богоподобного супергероя так и останутся бесконтрольными, грозный и могущественный страж Готэм Сити бросает вызов самому почитаемому в наши дни спасителю Метрополиса, в то время как весь остальной мир решает, какой герой ему по-настоящему нужен. И пока Бэтмен и Супермен пребывают в состоянии войны друг с другом, возникает новая угроза, которая ставит человечество под самую большую опасность, с которой оно когда-либо сталкивалось.-Качество исходника: WEB-DL 720p (HDClub)
    Качество: WEB-DL
    Тип: HD (720p)
    Контейнер: M4V
    Видео: H.264, 1280x532, 2.40:1, 4 014 Kbps, 23.976 fps
    Аудио 1: Русский/Дублированный (iTunes), AAC / 2.0 / 157 Kbps / 48.0 KHz
    Аудио 2: Английский/Оригинальная дорожка , AAC / 2.0 / 157 Kbps / 48.0 KHz
    Аудио 3: Русский/Дублированный (iTunes), AC-3 / 5.1 / 384 Kbps / 48.0 KHz
    Аудио 4: Английский/Оригинальная дорожка , AC-3 / 5.1 / 384 Kbps / 48.0 KHz
    Субтитры 1: Русские форсированные
    Субтитры 2: Русские полные
    -

    iTunes Meta Tags

    Sort Name: Бэтмен против Супермена: На заре справедливости
    XID: Apple:vendor_id:2016-770631
    contentID: 1092464213
    Copyright: © 2016 Warner Bros. Entertainment Inc. and Ratpac-Dune Entertainment Inc. BATMAN V SUPERMAN: DAWN OF JUSTICE and all related characters and elements are trademarks of and copyright DC Comics. Все права защищены.
    Screenwriters: Крис Террио, Дэвид С. Гойер, Боб Кейн
    Producers: Чарльз Ровен, Дебора Снайдер, Уэсли Коллер
    Director: Зак Снайдер
    Cast: Генри Кавилл, Бен Аффлек, Галь Гадот, Эми Адамс, Джесси Айзенберг, Джереми Айронс, Дайан Лэйн, Лоренс Фишбёрн, Холли Хантер, Скут МакНэри, Антон Савенков, Василий Дахненко, Мария Фортунатова, Прохор Чеховской, Игорь Тарадайкин
    Studio: Warner Bros.
    Rating: 134
    Long Description: Опасаясь, что действия богоподобного супергероя так и останутся бесконтрольными, грозный и могущественный страж Готэм Сити бросает вызов самому почитаемому в наши дни спасителю Метрополиса, в то время как весь остальной мир решает, какой герой ему по-настоящему нужен. И пока Бэтмен и Супермен пребывают в состоянии войны друг с другом, возникает новая угроза, которая ставит человечество под самую большую опасность, с которой оно когда-либо сталкивалось.
    Description: Опасаясь, что действия богоподобного супергероя так и останутся бесконтрольными, грозный и могущественный страж Готэм Сити бросает вызов самому почитаемому в наши дни спасителю Метрополиса, в то время как весь остальной мир решает, какой герой ему по-настоящему нужен. И пока Бэтмен и Супермен пребывают в состоянии войны друг с другом, возникает новая угроза, которая ставит человечество под самую большую опасность, с которой оно когда-либо сталкивалось.
    Release Date: 2016-03-12T08:00:00Z
    Genre: Боевики и приключения
    Artist: Zack Snyder
    Name: Бэтмен против Супермена: На заре справедливости

    MediaInfo

    General
    Complete name : /Users/imac/HandBrake/Batman.v.Superman.Dawn.of.Justice.WEB-DL.720p.m4v
    Format : MPEG-4
    Codec ID : M4V
    File size : 5.41 GiB
    Duration : 2h 31mn
    Overall bit rate mode : Variable
    Overall bit rate : 5 106 Kbps
    Movie name : Бэтмен против Супермена: На заре справедливости
    Performer : Zack Snyder
    Director : Зак Снайдер
    Actor : Генри Кавилл / Бен Аффлек / Галь Гадот / Эми Адамс / Джесси Айзенберг / Джереми Айронс / Дайан Лэйн / Лоренс Фишбёрн / Холли Хантер / Скут МакНэри / Антон Савенков / Василий Дахненко / Мария Фортунатова / Прохор Чеховской / Игорь Тарадайкин
    Screenplay by : Крис Террио / Дэвид С. Гойер / Боб Кейн
    Producer : Чарльз Ровен / Дебора Снайдер / Уэсли Коллер
    Production studio : Warner Bros.
    Genre : Боевики и приключения
    ContentType : Short Film
    Description : Опасаясь, что действия богоподобного супергероя так и останутся бесконтрольными, грозный и могущественный страж Готэм Сити бросает вызов самому почитаемому в наши дни спасителю Метрополиса, в то время как весь остальной мир решает, какой герой ему по-настоящему нужен. И пока Бэтмен и Супермен пребывают в состоянии войны друг с другом, возникает новая угроза, которая ставит человечество под самую большую опасность, с которой оно когда-либо сталкивалось.
    Recorded date : UTC 2016-03-12 08:00:00
    Encoded date : UTC 2016-06-29 21:38:51
    Tagged date : UTC 2016-06-29 21:42:32
    Copyright : © 2016 Warner Bros. Entertainment Inc. and Ratpac-Dune Entertainment Inc. BATMAN V SUPERMAN: DAWN OF JUSTICE and all related characters and elements are trademarks of and copyright DC Comics. Все права защищены.
    Cover : Yes
    Rating : None
    Title/Sort : Бэтмен против Супермена: На заре справедливости
    LongDescription : Опасаясь, что действия богоподобного супергероя так и останутся бесконтрольными, грозный и могущественный страж Готэм Сити бросает вызов самому почитаемому в наши дни спасителю Метрополиса, в то время как весь остальной мир решает, какой герой ему по-настоящему нужен. И пока Бэтмен и Супермен пребывают в состоянии войны друг с другом, возникает новая угроза, которая ставит человечество под самую большую опасность, с которой оно когда-либо сталкивалось.
    HDVideo : Yes
    AppleStoreCatalogID : 1092464213
    Vendor : Apple:vendor_id:2016-770631
    ContentRating : ru-movie|12+|200|
    Video #1
    ID : 1
    Format : AVC
    Format/Info : Advanced Video Codec
    Format profile : Main@L3.1
    Format settings, CABAC : No
    Format settings, ReFrames : 2 frames
    Format settings, GOP : M=2, N=90
    Codec ID : avc1
    Codec ID/Info : Advanced Video Coding
    Duration : 2h 31mn
    Bit rate : 4 014 Kbps
    Width : 1 280 pixels
    Height : 532 pixels
    Display aspect ratio : 2.40:1
    Frame rate mode : Variable
    Frame rate : 23.976 fps
    Minimum frame rate : 23.810 fps
    Maximum frame rate : 24.390 fps
    Color space : YUV
    Chroma subsampling : 4:2:0
    Bit depth : 8 bits
    Scan type : Progressive
    Bits/(Pixel*Frame) : 0.246
    Stream size : 4.25 GiB (79%)
    Title : Main Program
    Language : English
    Encoded date : UTC 2016-06-29 21:38:51
    Tagged date : UTC 2016-06-29 21:40:30
    Color range : Limited
    Color primaries : BT.709
    Transfer characteristics : BT.709
    Matrix coefficients : BT.709
    Video #2
    ID : 9
    Format : JPEG
    Codec ID : jpeg
    Duration : 2h 31mn
    Bit rate mode : Variable
    Bit rate : 419 bps
    Width : 640 pixels
    Height : 266 pixels
    Display aspect ratio : 2.40:1
    Frame rate mode : Variable
    Frame rate : 0.002 fps
    Minimum frame rate : 0.001 fps
    Maximum frame rate : 0.003 fps
    Color space : YUV
    Chroma subsampling : 4:2:0
    Bit depth : 8 bits
    Compression mode : Lossy
    Bits/(Pixel*Frame) : 1.231
    Stream size : 409 KiB (0%)
    Title : Chapter Images
    Language : English
    Encoded date : UTC 2016-06-29 21:40:34
    Tagged date : UTC 2016-06-29 21:40:34
    Audio #1
    ID : 2
    Format : AAC
    Format/Info : Advanced Audio Codec
    Format profile : LC
    Codec ID : 40
    Duration : 2h 31mn
    Bit rate mode : Variable
    Bit rate : 157 Kbps
    Maximum bit rate : 212 Kbps
    Channel(s) : 2 channels
    Channel positions : Front: L R
    Sampling rate : 48.0 KHz
    Compression mode : Lossy
    Stream size : 170 MiB (3%)
    Title : Russian Stereo
    Language : Russian
    Encoded date : UTC 2016-06-29 21:38:51
    Tagged date : UTC 2016-06-29 21:39:38
    Audio #2
    ID : 3
    Format : AAC
    Format/Info : Advanced Audio Codec
    Format profile : LC
    Codec ID : 40
    Duration : 2h 31mn
    Bit rate mode : Variable
    Bit rate : 157 Kbps
    Maximum bit rate : 227 Kbps
    Channel(s) : 2 channels
    Channel positions : Front: L R
    Sampling rate : 48.0 KHz
    Compression mode : Lossy
    Stream size : 170 MiB (3%)
    Title : English Stereo
    Language : English
    Encoded date : UTC 2016-06-29 21:38:51
    Tagged date : UTC 2016-06-29 21:39:38
    Audio #3
    ID : 4
    Format : AC-3
    Format/Info : Audio Coding 3
    Mode extension : CM (complete main)
    Format settings, Endianness : Big
    Codec ID : ac-3
    Duration : 2h 31mn
    Bit rate mode : Constant
    Bit rate : 384 Kbps
    Channel(s) : 6 channels
    Channel positions : Front: L C R, Side: L R, LFE
    Sampling rate : 48.0 KHz
    Bit depth : 16 bits
    Compression mode : Lossy
    Stream size : 416 MiB (8%)
    Title : Russian DD 5.1
    Language : Russian
    Encoded date : UTC 2016-06-29 21:38:51
    Tagged date : UTC 2016-06-29 21:39:38
    Audio #4
    ID : 5
    Format : AC-3
    Format/Info : Audio Coding 3
    Mode extension : CM (complete main)
    Format settings, Endianness : Big
    Codec ID : ac-3
    Duration : 2h 31mn
    Bit rate mode : Constant
    Bit rate : 384 Kbps
    Channel(s) : 6 channels
    Channel positions : Front: L C R, Side: L R, LFE
    Sampling rate : 48.0 KHz
    Bit depth : 16 bits
    Compression mode : Lossy
    Stream size : 416 MiB (8%)
    Title : English DD 5.1
    Language : English
    Encoded date : UTC 2016-06-29 21:38:51
    Tagged date : UTC 2016-06-29 21:39:38
    Text #1
    ID : 6
    Format : Timed Text
    Muxing mode : sbtl
    Codec ID : tx3g
    Duration : 2h 31mn
    Bit rate mode : Variable
    Bit rate : 5 bps
    Stream size : 5.07 KiB (0%)
    Title : Russian forced
    Language : Russian
    Encoded date : UTC 2016-06-29 21:38:51
    Tagged date : UTC 2016-06-29 21:40:30
    Text #2
    ID : 7
    Format : Timed Text
    Muxing mode : sbtl
    Codec ID : tx3g
    Duration : 2h 31mn
    Bit rate mode : Variable
    Bit rate : 62 bps
    Stream size : 68.6 KiB (0%)
    Title : Russian fiull
    Language : Russian
    Encoded date : UTC 2016-06-29 21:38:51
    Tagged date : UTC 2016-06-29 21:40:30
    Menu #1
    00:00:00.000 : 1
    00:09:48.000 : 2
    00:20:45.000 : 3
    00:29:58.000 : 4
    00:38:46.000 : 5
    00:49:25.000 : 6
    00:59:21.000 : 7
    01:10:06.000 : 8
    01:21:14.000 : 9
    01:30:00.000 : 10
    01:38:20.000 : 11
    01:49:57.000 : 12
    02:01:48.000 : 13
    02:10:40.000 : 14
    02:18:41.000 : 15
    02:23:50.000 : 16
    Menu #2
    ID : 8
    Codec ID : text
    Duration : 2h 31mn
    Language : English
    Encoded date : UTC 2016-06-29 21:40:30
    Tagged date : UTC 2016-06-29 21:40:30
    00:00:00.000 : 1
    00:09:48.000 : 2
    00:20:45.000 : 3
    00:29:58.000 : 4
    00:38:46.000 : 5
    00:49:25.000 : 6
    00:59:21.000 : 7
    01:10:06.000 : 8
    01:21:14.000 : 9
    01:30:00.000 : 10
    01:38:20.000 : 11
    01:49:57.000 : 12
    02:01:48.000 : 13
    02:10:40.000 : 14
    02:18:41.000 : 15
    02:23:50.000 : 16
    Bit rate mode : VBR

    Скриншоты

    -

    Релиз подготовлен для просмотра на Apple TV, iPad, iPhone, iPod Touch.
    Для просмотра данного релиза на компьютере с ОС Windows рекомендуется использовать VLC media player
    Скачать .torrent

    Скачать торрент-файл бесплатно и на максимальной скорости!

    Как скачивать? · Что такое торрент? · Рейтинг и ограничения

    !ВНИМАНИЕ!
    Сайт не распространяет и не хранит электронные версии произведений, а занимается лишь лишь предоставлением доступа к создаваемому пользователями каталогу ссылок на торрент-файлы, которые содержат только списки хеш-сумм, убедительная просьба с жалобами обращаться напрямую к пользователю. Файлы для обмена на трекере предоставлены пользователями сайта, и администрация не несёт ответственности за их содержание. Просьба не заливать файлы, защищенные авторскими правами, а также файлы нелегального содержания!


    _________________
    [Профиль] [ЛС]
    Показать сообщения:    
    Ответить на тему

    Текущее время: Сегодня, в 22:14

    Часовой пояс: GMT + 2



    Вы не можете начинать темы
    Вы не можете отвечать на сообщения
    Вы не можете редактировать свои сообщения
    Вы не можете удалять свои сообщения
    Вы не можете голосовать в опросах
    Вы не можете прикреплять файлы к сообщениям
    Вы не можете скачивать файлы