BitTorrentTracker PerecTracker.org
BitTorrentTracker PerecTracker.org
    
Регистрация  ·  Вход
 
 · 
Забыли пароль?

  • Вдвоём на льдине (Валерий Игнатьев) [2015, драма, мелодрама, WEB-DLRip]

    Ответить на тему
     
    Автор Сообщение

    Flirldrerve

    Создавать темы 29-Июн-2016 18:27

           

    [Цитировать]

    Вдвоём на льдине
    Жанр: Драма, мелодрама
    Год выпуска: 2015
    Продолжительность: 01:23:48
    Режиссёр: Валерий Игнатьев
    В ролях: Владимир Дыховичный, Елизавета Саксина, Валерий Баринов, Марианна Шульц, Евгений Редько, Александр Бобров, Полина Козловская, Евгения Каверау, Иван Шмаков, Диана Енакаева, Андрей Бронников, и др.
    Описание: Юный пианист Роман Осин попадает в онкологическую клинику с диагнозом Саркома Юинга, где встречает девочку Юлю, талантливую художницу. Между ними возникает симпатия, всё свободное время они стараются проводить вместе. Забыв о своих диагнозах, они живут как обычные молодые люди... Но однажды болезнь напомнила о себе. Рома понимает, что состояние Юли ухудшается и медицина здесь бессильна. Веря в силу музыки, Рома решает исполнить Второй концерт Рахманинова в клинике, надеясь на то, что это может помочь Юле...
    Это история о первой любви, о самопожертвовании ради любимого человека, о неумирающей надежде…

    Качество видео: WEB-DLRip
    Формат видео: AVI
    Видео: XviD 73 MPEG-4, 688x368 (1.85:1) 25.000 fps, ~1108 kbps avg, 0.175 bit/pixel
    Аудио: MP-3 Joint stereo, CBR 128 kbps 2 ch, 48.0 KHz

    MediaInfo

    ОбщееПолное имя : V:\Вдвоём_на_льдине_2015_WEB-DLRip_[perectracker.org].aviФормат : AVIФормат/Информация : Audio Video InterleaveРазмер файла : 747 МбайтПродолжительность : 1 ч. 23 м.Общий поток : 1246 Кбит/секНазвание фильма : Вдвоём_на_льдине_2015_WEB-DLRip_[perectracker.org]Режиссёр : networkЖанр : Драма, мелодрамаПрограмма кодирования : VirtualDubModRus 1.5.10.2 (build 2542/release)Формат оригинала/Имя : Наше киноПравообладатель : networkПримечание : 28 июня 2016 г.
    ВидеоИдентификатор : 0Формат : MPEG-4 VisualПрофиль формата : Advanced Simple@L5Параметр BVOP формата : 1Параметр QPel формата : НетПараметр GMC формата : Без точки переходаПараметр матрицы формата : ВыборочнаяИдентификатор кодека : DX50Идентификатор кодека/Подсказка : DivX 5Продолжительность : 1 ч. 23 м.Битрейт : 1108 Кбит/секШирина : 688 пикселейВысота : 368 пикселейСоотношение сторон : 1,85:1Частота кадров : 25,000 кадров/секЦветовое пространство : YUVСубдискретизация насыщенности : 4:2:0Битовая глубина : 8 битТип развёртки : ПрогрессивнаяМетод сжатия : С потерямиБит/(Пиксели*Кадры) : 0.175Размер потока : 664 Мбайт (89%)Библиотека кодирования : XviD 73
    АудиоИдентификатор : 1Формат : MPEG AudioВерсия формата : Version 1Профиль формата : Layer 3Режим : Joint stereoРасширение режима : MS StereoИдентификатор кодека : 55Идентификатор кодека/Подсказка : MP3Продолжительность : 1 ч. 23 м.Вид битрейта : ПостоянныйБитрейт : 128 Кбит/секКаналы : 2 каналаЧастота : 48,0 КГцМетод сжатия : С потерямиРазмер потока : 76,7 Мбайт (10%)Выравнивание : Соединение по промежуткамПродолжительность промежутка : 40 мс. (1,00 видеокадр)Время предзагрузки промежутка : 504 мс.Библиотека кодирования : LAME3.99Настройки программы : -m j -V 4 -q 2 -lowpass 17 -b 128

    Скриншот c названием фильма

    Скриншоты

    Скачать .torrent

    Скачать торрент-файл бесплатно и на максимальной скорости!

    Как скачивать? · Что такое торрент? · Рейтинг и ограничения

    !ВНИМАНИЕ!
    Сайт не распространяет и не хранит электронные версии произведений, а занимается лишь лишь предоставлением доступа к создаваемому пользователями каталогу ссылок на торрент-файлы, которые содержат только списки хеш-сумм, убедительная просьба с жалобами обращаться напрямую к пользователю. Файлы для обмена на трекере предоставлены пользователями сайта, и администрация не несёт ответственности за их содержание. Просьба не заливать файлы, защищенные авторскими правами, а также файлы нелегального содержания!


    _________________
    [Профиль] [ЛС]
    Показать сообщения:    
    Ответить на тему

    Текущее время: Сегодня, в 03:21

    Часовой пояс: GMT + 2



    Вы не можете начинать темы
    Вы не можете отвечать на сообщения
    Вы не можете редактировать свои сообщения
    Вы не можете удалять свои сообщения
    Вы не можете голосовать в опросах
    Вы не можете прикреплять файлы к сообщениям
    Вы не можете скачивать файлы