BitTorrentTracker PerecTracker.org
BitTorrentTracker PerecTracker.org
    
Регистрация  ·  Вход
 
 · 
Забыли пароль?

  • Легенда о Билли Джин / The Legend of Billie Jean (Мэттью Роббинс / Matthew Robbins) [1985, США, драма, боевик, BDRemux 1080p] DVO (НТВ+) + Sub Eng + Original Eng + Commentary Eng

    Ответить на тему
     
    Автор Сообщение

    Light

    Создавать темы 29-Июн-2016 18:27

           

    [Цитировать]

    Легенда о Билли Джин / The Legend of Billie Jean«When you're seventeen, people think they can do anything to you.
    Billie Jean is about to prove them wrong»

    Страна: США
    Жанр: драма, боевик
    Год выпуска: 1985
    Продолжительность: 01:35:13
    Перевод: Профессиональный (двухголосый закадровый) НТВ+*
    Cубтитры: английские
    Оригинальная аудиодорожка: английский
    -
    Режиссер: Мэттью Роббинс / Matthew Robbins
    В ролях: Хелен Слейтер, Кристиан Слэйтер, Кит Гордон, Ричард Брэдфорд, Питер Койот, Марта Геман, Ярдли Смит, Дин Стокуэлл, Бэрри Табб, Мона Ли Фульц
    -
    Описание: Обычная техасская девчонка Билли Джин Дэви протестует против постоянных издевательств со стороны местных хулиганов, против лжи и лицемерия взрослых. Она коротко стрижётся и вместе со своим братом и его друзьями начинает самостоятельную борьбу за справедливость.

    * Текст читают: Ольга Сирина, Андрей Бархударов
    Тип релиза: BDRemux 1080p
    Контейнер: MKV
    Видео: MPEG-4 AVC / NTSC 16:9 / 1920x1080 (1,78:1) / 24999 kbps / 23,976 fps / 0.503 bit/pixel / High@L4.1
    Аудио 1: Russian / Dolby Digital Audio / 2.0 Ch / 48 kHz / 192 kbps / 16 bit / DVO
    Аудио 2: English / Dolby Digital Audio / 2.0 Ch / 48 kHz / 192 kbps / 16 bit / Original
    Аудио 3: English / Dolby Digital Audio / 2.0 Ch / 48 kHz / 192 kbps / 16 bit / Commentary track with stars Helen Slater & Yeardley Smith
    Формат субтитров: softsub (SRT)
    Навигация по главам: есть

    MediaInfo

    Общее
    Уникальный идентификатор                 : 246287477094595300593507029981234634977 (0xB9493E2201CF1D0AB86CC8D6271AA0E1)
    Полное имя                               : D:\The Legend of Billie Jean.1985.BDRemux.1080p.mkv
    Формат                                   : Matroska
    Версия формата                           : Version 4 / Version 2
    Размер файла                             : 17,0 Гбайт
    Продолжительность                        : 1 ч. 35 м.
    Режим общего битрейта                    : Переменный
    Общий поток                              : 25,6 Мбит/сек
    Дата кодирования                         : UTC 2016-06-28 02:35:30
    Программа кодирования                    : mkvmerge v9.2.0 ('Photograph') 64bit
    Библиотека кодирования                   : libebml v1.3.3 + libmatroska v1.4.4
    Видео
    Идентификатор                            : 1
    Формат                                   : AVC
    Формат/Информация                        : Advanced Video Codec
    Профиль формата                          : High@L4.1
    Параметр CABAC формата                   : Да
    Параметр ReFrames формата                : 4 кадра
    Идентификатор кодека                     : V_MPEG4/ISO/AVC
    Продолжительность                        : 1 ч. 35 м.
    Вид битрейта                             : Переменный
    Битрейт                                  : 25,0 Мбит/сек
    Максимальный битрейт                     : 35,0 Мбит/сек
    Ширина                                   : 1920 пикселей
    Высота                                   : 1080 пикселей
    Соотношение сторон                       : 16:9
    Режим частоты кадров                     : Постоянный
    Частота кадров                           : 23,976 (24000/1001) кадра/сек
    Стандарт вещания                         : NTSC
    Цветовое пространство                    : YUV
    Субдискретизация насыщенности            : 4:2:0
    Битовая глубина                          : 8 бит
    Тип развёртки                            : Прогрессивная
    Бит/(Пиксели*Кадры)                      : 0.503
    Размер потока                            : 16,6 Гбайт (98%)
    Язык                                     : English
    Default                                  : Да
    Forced                                   : Нет
    Цветовой диапазон                        : Limited
    Основные цвета                           : BT.709
    Характеристики трансфера                 : BT.709
    Коэффициенты матрицы                     : BT.709
    Аудио #1
    Идентификатор                            : 2
    Формат                                   : AC-3
    Формат/Информация                        : Audio Coding 3
    Расширение режима                        : CM (complete main)
    Параметр Endianness формата              : Big
    Идентификатор кодека                     : A_AC3
    Продолжительность                        : 1 ч. 35 м.
    Вид битрейта                             : Постоянный
    Битрейт                                  : 192 Кбит/сек
    Каналы                                   : 2 канала
    Расположение каналов                     : Front: L R
    Частота                                  : 48,0 КГц
    Частота кадров                           : 31,250 кадров/сек (1536 spf)
    Метод сжатия                             : С потерями
    Размер потока                            : 131 Мбайт (1%)
    Заголовок                                : DVO / НТВ+ [Ольга Сирина, Андрей Бархударов]
    Язык                                     : Russian
    Default                                  : Да
    Forced                                   : Нет
    Аудио #2
    Идентификатор                            : 3
    Формат                                   : AC-3
    Формат/Информация                        : Audio Coding 3
    Расширение режима                        : CM (complete main)
    Параметр Endianness формата              : Big
    Идентификатор кодека                     : A_AC3
    Продолжительность                        : 1 ч. 35 м.
    Вид битрейта                             : Постоянный
    Битрейт                                  : 192 Кбит/сек
    Каналы                                   : 2 канала
    Расположение каналов                     : Front: L R
    Частота                                  : 48,0 КГц
    Частота кадров                           : 31,250 кадров/сек (1536 spf)
    Метод сжатия                             : С потерями
    Размер потока                            : 131 Мбайт (1%)
    Заголовок                                : Original
    Язык                                     : English
    Default                                  : Нет
    Forced                                   : Нет
    Аудио #3
    Идентификатор                            : 4
    Формат                                   : AC-3
    Формат/Информация                        : Audio Coding 3
    Расширение режима                        : CM (complete main)
    Параметр Endianness формата              : Big
    Идентификатор кодека                     : A_AC3
    Продолжительность                        : 1 ч. 35 м.
    Вид битрейта                             : Постоянный
    Битрейт                                  : 192 Кбит/сек
    Каналы                                   : 2 канала
    Расположение каналов                     : Front: L R
    Частота                                  : 48,0 КГц
    Частота кадров                           : 31,250 кадров/сек (1536 spf)
    Метод сжатия                             : С потерями
    Размер потока                            : 131 Мбайт (1%)
    Заголовок                                : Commentary track with stars Helen Slater & Yeardley Smith
    Язык                                     : English
    Default                                  : Нет
    Forced                                   : Нет
    Текст
    Идентификатор                            : 5
    Формат                                   : UTF-8
    Идентификатор кодека                     : S_TEXT/UTF8
    Идентификатор кодека/Информация          : UTF-8 Plain Text
    Продолжительность                        : 1 ч. 31 м.
    Битрейт                                  : 56 бит/сек
    Count of elements                        : 1248
    Размер потока                            : 37,6 Кбайт (0%)
    Заголовок                                : Original
    Язык                                     : English
    Default                                  : Нет
    Forced                                   : Нет
    Меню
    00:00:00.000                             : en:00:00:00.000
    00:22:00.819                             : en:00:22:00.819
    00:54:20.883                             : en:00:54:20.883
    01:16:37.927                             : en:01:16:37.927

    Скриншоты

    Скачать .torrent

    Скачать торрент-файл бесплатно и на максимальной скорости!

    Как скачивать? · Что такое торрент? · Рейтинг и ограничения

    !ВНИМАНИЕ!
    Сайт не распространяет и не хранит электронные версии произведений, а занимается лишь лишь предоставлением доступа к создаваемому пользователями каталогу ссылок на торрент-файлы, которые содержат только списки хеш-сумм, убедительная просьба с жалобами обращаться напрямую к пользователю. Файлы для обмена на трекере предоставлены пользователями сайта, и администрация не несёт ответственности за их содержание. Просьба не заливать файлы, защищенные авторскими правами, а также файлы нелегального содержания!


    _________________
    [Профиль] [ЛС]
    Показать сообщения:    
    Ответить на тему

    Текущее время: Сегодня, в 06:15

    Часовой пояс: GMT + 2



    Вы не можете начинать темы
    Вы не можете отвечать на сообщения
    Вы не можете редактировать свои сообщения
    Вы не можете удалять свои сообщения
    Вы не можете голосовать в опросах
    Вы не можете прикреплять файлы к сообщениям
    Вы не можете скачивать файлы