BitTorrentTracker PerecTracker.org
BitTorrentTracker PerecTracker.org
    
Регистрация  ·  Вход
 
 · 
Забыли пароль?

  • Ведьмочка / Маленькая колдунья / Teen Witch (Дориан Уолкер / Dorian Walker) [1989, США, фэнтези, мелодрама, комедия, WEB-DL 720p] DVO (НТВ+) + Original Eng

    Ответить на тему
     
    Автор Сообщение

    Light

    Создавать темы 29-Июн-2016 18:27

           

    [Цитировать]

    Ведьмочка / Маленькая колдунья / Teen Witch
    Страна: США
    Жанр: фэнтези, мелодрама, комедия
    Год выпуска: 1989
    Продолжительность: 01:33:47
    Перевод: Профессиональный (двухголосый закадровый) НТВ+
    Cубтитры: нет
    Оригинальная аудиодорожка: английский
    Режиссер: Дориан Уолкер / Dorian Walker
    В ролях: Робин Лайвли, Дэн Готье, Джошуа Джон Миллер, Карен Кэй, Дик Сарджент, Лиза Фуллер, Мэнди Ингбер, Зельда Рубинштейн, Ной Блейк, Тина Каспари...
    Описание:
    Луиза была далеко не самой популярной девушкой в своей школе. Но многое изменилось после того, как она узнала, что является потомком знаменитых салемских ведьм и унаследовала от них сверхъестественные способности. Поначалу Луиза использует их для мести и для завоевания сердца капитана школьной футбольной команды. Но потом она стала сомневаться в том, что правильно поступает…
    Сэмпл: http://sendfile.su/1246073
    Тип релиза: WEB-DL 720p
    Контейнер: MKV
    Видео: 1280x692 (1.85:1), 23.976 fps, AVC, ~3956 Kbps, 0.186 bits/pixel
    Аудио 1: Russian, 48.0 KHz, AC3, 2 ch, 192 Kbps - НТВ+
    Аудио 2: English, 48.0 KHz, AAC LC, 2 ch, 160 Kbps

    MediaInfo

    General
    Unique ID : 239965031092141436155692220346178705876 (0xB487957A6137E27EA89947470F5399D4)
    Complete name : C:\Teen Witch. WEB-DL 720p.mkv
    Format : Matroska
    Format version : Version 4 / Version 2
    File size : 2.88 GiB
    Duration : 1h 33mn
    Overall bit rate : 4 390 Kbps
    Movie name :
    Encoded date : UTC 2016-06-28 13:30:47
    Writing application : mkvmerge v9.2.0 ('Photograph') 64bit
    Writing library : libebml v1.3.3 + libmatroska v1.4.4
    Video
    ID : 1
    Format : AVC
    Format/Info : Advanced Video Codec
    Format profile : High@L3.1
    Format settings, CABAC : No
    Format settings, ReFrames : 2 frames
    Codec ID : V_MPEG4/ISO/AVC
    Duration : 1h 33mn
    Bit rate : 4 035 Kbps
    Width : 1 280 pixels
    Height : 692 pixels
    Display aspect ratio : 1.85:1
    Frame rate mode : Constant
    Frame rate : 23.976 (23976/1000) fps
    Color space : YUV
    Chroma subsampling : 4:2:0
    Bit depth : 8 bits
    Scan type : Progressive
    Bits/(Pixel*Frame) : 0.190
    Stream size : 2.64 GiB (92%)
    Language : English
    Default : Yes
    Forced : No
    Color range : Limited
    Color primaries : BT.709
    Transfer characteristics : BT.709
    Matrix coefficients : BT.709
    Audio #1
    ID : 2
    Format : AC-3
    Format/Info : Audio Coding 3
    Mode extension : CM (complete main)
    Format settings, Endianness : Big
    Codec ID : A_AC3
    Duration : 1h 33mn
    Bit rate mode : Constant
    Bit rate : 192 Kbps
    Channel(s) : 2 channels
    Channel positions : Front: L R
    Sampling rate : 48.0 KHz
    Frame rate : 31.250 fps (1536 spf)
    Compression mode : Lossy
    Stream size : 129 MiB (4%)
    Title : НТВ+
    Language : Russian
    Default : Yes
    Forced : No
    Audio #2
    ID : 3
    Format : AAC
    Format/Info : Advanced Audio Codec
    Format profile : LC
    Codec ID : A_AAC
    Duration : 1h 33mn
    Bit rate : 161 Kbps
    Channel(s) : 2 channels
    Channel positions : Front: L R
    Sampling rate : 48.0 KHz
    Frame rate : 46.875 fps (1024 spf)
    Compression mode : Lossy
    Stream size : 108 MiB (4%)
    Language : English
    Default : No
    Forced : No
    Menu
    00:00:00.000 : en:Chapter 1
    00:06:20.000 : en:Chapter 2
    00:09:59.000 : en:Chapter 3
    00:12:15.000 : en:Chapter 4
    00:15:20.000 : en:Chapter 5
    00:21:20.000 : en:Chapter 6
    00:26:46.000 : en:Chapter 7
    00:33:29.000 : en:Chapter 8
    00:36:39.000 : en:Chapter 9
    00:44:03.000 : en:Chapter 10
    00:49:20.000 : en:Chapter 11
    00:54:50.000 : en:Chapter 12
    00:58:51.000 : en:Chapter 13
    01:07:30.000 : en:Chapter 14
    01:17:34.000 : en:Chapter 15
    01:24:37.000 : en:Chapter 16

    Скриншоты

    Скачать .torrent

    Скачать торрент-файл бесплатно и на максимальной скорости!

    Как скачивать? · Что такое торрент? · Рейтинг и ограничения

    !ВНИМАНИЕ!
    Сайт не распространяет и не хранит электронные версии произведений, а занимается лишь лишь предоставлением доступа к создаваемому пользователями каталогу ссылок на торрент-файлы, которые содержат только списки хеш-сумм, убедительная просьба с жалобами обращаться напрямую к пользователю. Файлы для обмена на трекере предоставлены пользователями сайта, и администрация не несёт ответственности за их содержание. Просьба не заливать файлы, защищенные авторскими правами, а также файлы нелегального содержания!


    _________________
    [Профиль] [ЛС]
    Показать сообщения:    
    Ответить на тему

    Текущее время: Сегодня, в 22:50

    Часовой пояс: GMT + 2



    Вы не можете начинать темы
    Вы не можете отвечать на сообщения
    Вы не можете редактировать свои сообщения
    Вы не можете удалять свои сообщения
    Вы не можете голосовать в опросах
    Вы не можете прикреплять файлы к сообщениям
    Вы не можете скачивать файлы