BitTorrentTracker PerecTracker.org
BitTorrentTracker PerecTracker.org
    
Регистрация  ·  Вход
 
 · 
Забыли пароль?

  • Дорога в ад / Привет с дороги в ад / Шоссе в ад / Highway to Hell (Эйт де Йонг / Ate de Jong) [1991, США, ужасы, комедия, фантастика, BDRip 720p] MVO (ОРТ) + 3x AVO (Горчаков, Кашкин, Кузнецов) + Original Eng

    Ответить на тему
     
    Автор Сообщение

    Light

    Создавать темы 29-Июн-2016 18:27

           

    [Цитировать]

    Дорога в ад / Highway to Hell
    Страна: США
    Жанр: ужасы, комедия, фантастика
    Год выпуска: 1991
    Продолжительность: 01:33:40-Перевод 1: Профессиональный (многоголосый закадровый) - ОРТ
    Перевод 2: Авторский (одноголосый закадровый) - В.Горчаков
    Перевод 3: Авторский (одноголосый закадровый) - С.Кузнецов
    Перевод 4: Авторский (одноголосый закадровый) - А.Кашкин
    Cубтитры: нет
    Оригинальная аудиодорожка: английский-Режиссер: Эйт де Йонг / Ate de Jong-В ролях: Патрик Берджин, Адам Сторк, Чад Лоу, Кристи Свенсон, Бен Стиллер, Лита Форд-Описание: Чарли Сайкс и его подруга Рэйчел Кларк убегают из дома и отправляются в Лас-Вегас, намереваясь там пожениться. Они решают поехать по объездной дороге и останавливаются на заправке под названием «Последний шанс Сэма». Ее хозяин Сэм советует молодым людям не засыпать после того, как они проедут две трети дороги. Но они не слушают совета и засыпают в машине. Неожиданно появляется полицейская машина, и шериф арестовывает Рэйчел. Чарли возвращается один на автозаправочную станцию, и Сэм говорит ему, что Рэйчел была арестована полицейским из Ада, где она станет одной из невест самого Сатаны. Если он хочет спасти свою невесту, ему придется самому отправляться прямо в Ад…-Релиз:
    | Рип от SbR-Качество видео: BDRip - Sample
    Формат видео: MKV
    Видео: 1280x694 at 23.976 fps, x264@L4.1, ~10500 kbps avg
    Аудио 1: Russian: 48 kHz, AC3, 2/0 (L,R) ch, ~192 kbps avg |Многоголосый закадровый, ОРТ|
    Аудио 2: Russian: 48 kHz, AC3, 2/0 (L,R) ch, ~192 kbps avg |Авторский (одноголосый закадровый), В.Горчаков|
    Аудио 3: Russian: 48 kHz, AC3, 2/0 (L,R) ch, ~192 kbps avg |Авторский (одноголосый закадровый), С.Кузнецов|
    Аудио 4: Russian: 48 kHz, AC3, 2/0 (L,R) ch, ~192 kbps avg |Авторский (одноголосый закадровый), А.Кашкин|
    Аудио 5: English: 48 kHz/16-bit, FLac 2.0, ~606 kbps avg
    Аудио 6: English: 48 kHz, AAC, 2/0 (L,R) ch, ~116 kbps avg |Commentary|
    Цитата:
    Цитата:

    В дорожке ОРТ первые 11 минут со вставкой из Горчакова.
    Сохранены оригинальные чаптеры как на Blu-ray.

    MediaInfo

    Format                      : Matroska
    Format version              : Version 2
    File size                   : 7.81 GiB
    Duration                    : 1h 33mn
    Overall bit rate mode       : Variable
    Overall bit rate            : 11.9 Mbps
    Encoded date                : UTC 2016-06-28 12:40:24
    Writing application         : mkvmerge v4.2.0 ('No Talking') сборка от Jul 28 2010 18:38:23
    Writing library             : libebml v1.0.0 + libmatroska v1.0.0
    Cover                       : Yes
    Attachments                 : cover.jpg
    Video
    ID                          : 1
    Format                      : AVC
    Format/Info                 : Advanced Video Codec
    Format profile              : High@L4.1
    Format settings, CABAC      : Yes
    Format settings, ReFrames   : 9 frames
    Codec ID                    : V_MPEG4/ISO/AVC
    Duration                    : 1h 33mn
    Nominal bit rate            : 10.5 Mbps
    Width                       : 1 280 pixels
    Height                      : 694 pixels
    Display aspect ratio        : 1.85:1
    Frame rate mode             : Constant
    Frame rate                  : 23.976 (23976/1000) fps
    Color space                 : YUV
    Chroma subsampling          : 4:2:0
    Bit depth                   : 8 bits
    Scan type                   : Progressive
    Bits/(Pixel*Frame)          : 0.493
    Writing library             : x264 core 148 r2692+54 69a6f49 t_mod_Custom [8-bit@all X86_64]
    Encoding settings           : cabac=1 / ref=9 / deblock=1:-3:-3 / analyse=0x3:0x133 / me=umh / subme=10 / psy=1 / fade_compensate=0.00 / psy_rd=1.10:0.05 / mixed_ref=1 / me_range=24 / chroma_me=1 / trellis=2 / 8x8dct=1 / cqm=0 / deadzone=21,11 / fast_pskip=0 / chroma_qp_offset=-3 / threads=6 / lookahead_threads=1 / sliced_threads=0 / nr=0 / decimate=1 / interlaced=0 / bluray_compat=0 / constrained_intra=0 / fgo=0 / bframes=8 / b_pyramid=2 / b_adapt=2 / b_bias=0 / direct=3 / weightb=1 / open_gop=0 / weightp=2 / keyint=250 / keyint_min=23 / scenecut=40 / intra_refresh=0 / rc=2pass / mbtree=0 / bitrate=10500 / ratetol=1.0 / qcomp=0.65 / qpmin=0:0:0 / qpmax=69:69:69 / qpstep=4 / cplxblur=20.0 / qblur=0.5 / ip_ratio=1.30 / pb_ratio=1.20 / aq=1:0.65 / aq-sensitivity=10.00 / aq-factor=1.00:1.00:1.00 / aq2=1:0.60 / aq2-sensitivity=15.00 / aq2-factor=1.00:1.00:1.00 / aq3=1:[0.50:0.50]:[0.50:0.50]:[0.50:0.50]:[0.50:0.50] / aq3-sensitivity=10.00 / aq3-factor=[1.00:1.00]:[1.00:1.00]:[1.00:1.00] / aq3-boundary=192:64:24
    Language                    : English
    Default                     : Yes
    Forced                      : No
    Color range                 : Limited
    Matrix coefficients         : BT.709
    Statistics Tags Issue       : mkvmerge v8.3.0 ('Over the Horizon') 32bit 2016-06-25 15:58:25 / mkvmerge v4.2.0 ('No Talking') сборка от Jul 28 2010 18:38:23 2016-06-28 12:40:24
    FromStats_BitRate           : 10495901
    FromStats_Duration          : 01:33:39.620000000
    FromStats_FrameCount        : 134736
    FromStats_StreamSize        : 7372872380
    Audio #1
    ID                          : 2
    Format                      : AC-3
    Format/Info                 : Audio Coding 3
    Mode extension              : CM (complete main)
    Format settings, Endianness : Big
    Codec ID                    : A_AC3
    Duration                    : 1h 33mn
    Bit rate mode               : Constant
    Bit rate                    : 192 Kbps
    Channel(s)                  : 2 channels
    Channel positions           : Front: L R
    Sampling rate               : 48.0 KHz
    Frame rate                  : 31.250 fps (1536 spf)
    Compression mode            : Lossy
    Stream size                 : 129 MiB (2%)
    Title                       : Многоголосый закадровый, ОРТ
    Language                    : Russian
    Default                     : Yes
    Forced                      : No
    Statistics Tags Issue       : mkvmerge v8.3.0 ('Over the Horizon') 32bit 2016-06-25 15:58:25 / mkvmerge v4.2.0 ('No Talking') сборка от Jul 28 2010 18:38:23 2016-06-28 12:40:24
    FromStats_BitRate           : 192000
    FromStats_Duration          : 01:33:40.000000000
    FromStats_FrameCount        : 175625
    FromStats_StreamSize        : 134880000
    Audio #2
    ID                          : 3
    Format                      : AC-3
    Format/Info                 : Audio Coding 3
    Mode extension              : CM (complete main)
    Format settings, Endianness : Big
    Codec ID                    : A_AC3
    Duration                    : 1h 33mn
    Bit rate mode               : Constant
    Bit rate                    : 192 Kbps
    Channel(s)                  : 2 channels
    Channel positions           : Front: L R
    Sampling rate               : 48.0 KHz
    Frame rate                  : 31.250 fps (1536 spf)
    Compression mode            : Lossy
    Stream size                 : 129 MiB (2%)
    Title                       : Одноголосый закадровый, В.Горчаков
    Language                    : Russian
    Default                     : No
    Forced                      : No
    Statistics Tags Issue       : mkvmerge v8.3.0 ('Over the Horizon') 32bit 2016-06-25 15:58:25 / mkvmerge v4.2.0 ('No Talking') сборка от Jul 28 2010 18:38:23 2016-06-28 12:40:24
    FromStats_BitRate           : 192000
    FromStats_Duration          : 01:33:40.000000000
    FromStats_FrameCount        : 175625
    FromStats_StreamSize        : 134880000
    Audio #3
    ID                          : 4
    Format                      : AC-3
    Format/Info                 : Audio Coding 3
    Mode extension              : CM (complete main)
    Format settings, Endianness : Big
    Codec ID                    : A_AC3
    Duration                    : 1h 33mn
    Bit rate mode               : Constant
    Bit rate                    : 192 Kbps
    Channel(s)                  : 2 channels
    Channel positions           : Front: L R
    Sampling rate               : 48.0 KHz
    Frame rate                  : 31.250 fps (1536 spf)
    Compression mode            : Lossy
    Stream size                 : 129 MiB (2%)
    Title                       : Одноголосый закадровый, С.Кузнецов
    Language                    : Russian
    Default                     : No
    Forced                      : No
    Statistics Tags Issue       : mkvmerge v8.3.0 ('Over the Horizon') 32bit 2016-06-25 15:58:25 / mkvmerge v4.2.0 ('No Talking') сборка от Jul 28 2010 18:38:23 2016-06-28 12:40:24
    FromStats_BitRate           : 192000
    FromStats_Duration          : 01:33:40.000000000
    FromStats_FrameCount        : 175625
    FromStats_StreamSize        : 134880000
    Audio #4
    ID                          : 5
    Format                      : AC-3
    Format/Info                 : Audio Coding 3
    Mode extension              : CM (complete main)
    Format settings, Endianness : Big
    Codec ID                    : A_AC3
    Duration                    : 1h 33mn
    Bit rate mode               : Constant
    Bit rate                    : 192 Kbps
    Channel(s)                  : 2 channels
    Channel positions           : Front: L R
    Sampling rate               : 48.0 KHz
    Frame rate                  : 31.250 fps (1536 spf)
    Compression mode            : Lossy
    Stream size                 : 129 MiB (2%)
    Title                       : Одноголосый закадровый, А.Кашкин
    Language                    : Russian
    Default                     : No
    Forced                      : No
    Statistics Tags Issue       : mkvmerge v8.3.0 ('Over the Horizon') 32bit 2016-06-25 15:58:25 / mkvmerge v4.2.0 ('No Talking') сборка от Jul 28 2010 18:38:23 2016-06-28 12:40:24
    FromStats_BitRate           : 192000
    FromStats_Duration          : 01:33:40.000000000
    FromStats_FrameCount        : 175625
    FromStats_StreamSize        : 134880000
    Audio #5
    ID                          : 6
    Format                      : FLAC
    Format/Info                 : Free Lossless Audio Codec
    Codec ID                    : A_FLAC
    Duration                    : 1h 33mn
    Bit rate mode               : Variable
    Channel(s)                  : 2 channels
    Channel positions           : Front: L R
    Sampling rate               : 48.0 KHz
    Bit depth                   : 16 bits
    Writing library             : libFLAC 1.2.1 (UTC 2007-09-17)
    Language                    : English
    Default                     : No
    Forced                      : No
    Statistics Tags Issue       : mkvmerge v8.3.0 ('Over the Horizon') 32bit 2016-06-25 15:58:25 / mkvmerge v4.2.0 ('No Talking') сборка от Jul 28 2010 18:38:23 2016-06-28 12:40:24
    FromStats_BitRate           : 605885
    FromStats_Duration          : 01:33:40.000000000
    FromStats_FrameCount        : 65860
    FromStats_StreamSize        : 425634499
    Audio #6
    ID                          : 7
    Format                      : AAC
    Format/Info                 : Advanced Audio Codec
    Format profile              : LC
    Codec ID                    : A_AAC
    Duration                    : 1h 33mn
    Channel(s)                  : 2 channels
    Channel positions           : Front: L R
    Sampling rate               : 48.0 KHz
    Frame rate                  : 46.875 fps (1024 spf)
    Compression mode            : Lossy
    Delay relative to video     : 9ms
    Title                       : commentary
    Language                    : English
    Default                     : No
    Forced                      : No
    Statistics Tags Issue       : mkvmerge v8.3.0 ('Over the Horizon') 32bit 2016-06-25 15:58:25 / mkvmerge v4.2.0 ('No Talking') сборка от Jul 28 2010 18:38:23 2016-06-28 12:40:24
    FromStats_BitRate           : 66056
    FromStats_Duration          : 01:33:39.627000000
    FromStats_FrameCount        : 263420
    FromStats_StreamSize        : 46401789
    Menu
    00:00:00.000                : en:00:00:00.000
    00:14:19.649                : en:00:14:19.649
    00:22:07.116                : en:00:22:07.116
    00:34:52.965                : en:00:34:52.965
    00:43:42.369                : en:00:43:42.369
    00:55:27.782                : en:00:55:27.782
    01:05:37.224                : en:01:05:37.224
    01:18:00.884                : en:01:18:00.884

    Скриншоты

    Скачать .torrent

    Скачать торрент-файл бесплатно и на максимальной скорости!

    Как скачивать? · Что такое торрент? · Рейтинг и ограничения

    !ВНИМАНИЕ!
    Сайт не распространяет и не хранит электронные версии произведений, а занимается лишь лишь предоставлением доступа к создаваемому пользователями каталогу ссылок на торрент-файлы, которые содержат только списки хеш-сумм, убедительная просьба с жалобами обращаться напрямую к пользователю. Файлы для обмена на трекере предоставлены пользователями сайта, и администрация не несёт ответственности за их содержание. Просьба не заливать файлы, защищенные авторскими правами, а также файлы нелегального содержания!


    _________________
    [Профиль] [ЛС]
    Показать сообщения:    
    Ответить на тему

    Текущее время: Сегодня, в 22:15

    Часовой пояс: GMT + 2



    Вы не можете начинать темы
    Вы не можете отвечать на сообщения
    Вы не можете редактировать свои сообщения
    Вы не можете удалять свои сообщения
    Вы не можете голосовать в опросах
    Вы не можете прикреплять файлы к сообщениям
    Вы не можете скачивать файлы