BitTorrentTracker PerecTracker.org
BitTorrentTracker PerecTracker.org
    
Регистрация  ·  Вход
 
 · 
Забыли пароль?

  • Страна под названием Дом / A Country Called Home (Анна Акстер / Anna Axster) [ США, 2015, драма, HDRip] VO (Алексей Толмачев)

    Ответить на тему
     
    Автор Сообщение

    Light

    Создавать темы 29-Июн-2016 18:27

           

    [Цитировать]

    Страна под названием Дом / A Country Called Home
    Страна: США
    Жанр: Драма
    Год выпуска: 2015
    Продолжительность: 01:32:30
    Перевод: Одноголосый закадровый (Алексей Толмачев)
    Перевод на русский язык: Алексей Толмачев
    Cубтитры: нет
    Режиссер: Анна Акстер / Anna Axster
    В ролях: Имоджен Путс /Imogen Poots/, Макензи Дэвис /Mackenzie Davis/, Мэри Маккормак /Mary McCormack/, Райан Бингхэм /Ryan Bingham/, Джун Скуибб /June Squibb/, Норман Беннетт /Norman Bennett/, Шиа Уингхэм /Shea Whigham/, Джо Стивенс /Joe Stevens/, Джош Хелман /Josh Helman/
    Описание: Главная героиня фильма - Элли (Имоджен Путс), которая в свои 27 лет все еще не может сказать, что добилась каких-то определенных целей. Надоедливые друзья, эгоистичный бойфренд и нелюбимая работа, все это заставляет Элли чувствовать себя оторванной от собственной жизни. Но привычный ход вещей в один момент меняется, когда девушка узнает о смерти своего непутевого отца-алкоголика. Она решает отправится в небольшой техасский городок, где тот коротал последние годы жизни вдали от детей, чтобы проводить его в последний путь...

    Возрастные ограничения: 16+
    Сэмпл: http://multi-up.com/1107593
    Качество видео: HDRip
    Формат видео: AVI
    Видео: 720x304 (2.35:1), 23.976 fps, XviD 66, ~1727 kbps, 0.329 bit/pixel
    Аудио: 48.0 kHz, MP3, 2 ch, 128 kbps

    MediaInfo

    General
    Format : AVI
    Format/Info : Audio Video Interleave
    File size : 1.20 GiB
    Duration : 1h 32mn
    Overall bit rate : 1 864 Kbps
    Video
    ID : 0
    Format : MPEG-4 Visual
    Format profile : Advanced Simple@L5
    Format settings, BVOP : 2
    Format settings, QPel : No
    Format settings, GMC : No warppoints
    Format settings, Matrix : Default (H.263)
    Codec ID : XVID
    Codec ID/Hint : XviD
    Duration : 1h 32mn
    Bit rate : 1 727 Kbps
    Width : 720 pixels
    Height : 304 pixels
    Display aspect ratio : 2.35:1
    Frame rate : 23.976 fps
    Color space : YUV
    Chroma subsampling : 4:2:0
    Bit depth : 8 bits
    Scan type : Progressive
    Compression mode : Lossy
    Bits/(Pixel*Frame) : 0.329
    Stream size : 1.12 GiB (93%)
    Writing library : XviD 66
    Audio
    ID : 1
    Format : MPEG Audio
    Format version : Version 1
    Format profile : Layer 3
    Mode : Joint stereo
    Mode extension : MS Stereo
    Codec ID : 55
    Codec ID/Hint : MP3
    Duration : 1h 32mn
    Bit rate mode : Constant
    Bit rate : 128 Kbps
    Channel count : 2 channels
    Sampling rate : 48.0 KHz
    Compression mode : Lossy
    Stream size : 84.7 MiB (7%)
    Alignment : Split accross interleaves
    Interleave, duration : 42 ms (1.00 video frame)
    Interleave, preload duration : 500 ms

    Скриншот c названием фильма

    Скриншоты


    Скачать .torrent

    Скачать торрент-файл бесплатно и на максимальной скорости!

    Как скачивать? · Что такое торрент? · Рейтинг и ограничения

    !ВНИМАНИЕ!
    Сайт не распространяет и не хранит электронные версии произведений, а занимается лишь лишь предоставлением доступа к создаваемому пользователями каталогу ссылок на торрент-файлы, которые содержат только списки хеш-сумм, убедительная просьба с жалобами обращаться напрямую к пользователю. Файлы для обмена на трекере предоставлены пользователями сайта, и администрация не несёт ответственности за их содержание. Просьба не заливать файлы, защищенные авторскими правами, а также файлы нелегального содержания!


    _________________
    [Профиль] [ЛС]
    Показать сообщения:    
    Ответить на тему

    Текущее время: Сегодня, в 22:18

    Часовой пояс: GMT + 2



    Вы не можете начинать темы
    Вы не можете отвечать на сообщения
    Вы не можете редактировать свои сообщения
    Вы не можете удалять свои сообщения
    Вы не можете голосовать в опросах
    Вы не можете прикреплять файлы к сообщениям
    Вы не можете скачивать файлы