BitTorrentTracker PerecTracker.org
BitTorrentTracker PerecTracker.org
    
Регистрация  ·  Вход
 
 · 
Забыли пароль?

  • Мы сделали это! (Анатолий Эйрамджан) [2001, комедия, DVB-AVC]

    Ответить на тему
     
    Автор Сообщение

    Flirldrerve

    Создавать темы 29-Июн-2016 01:48

           

    [Цитировать]

    Мы сделали это!
    Страна: Россия
    Киностудия: "Новый Одеон"
    Жанр: комедия
    Год выпуска: 2001
    Продолжительность: 01:06:53
    Режиссёр: Анатолий Эйрамджан
    В ролях: А.Укупник, Л.Полищук, С.Степанченко, О.Толстецкая, Е.Зинченко, А.Носик, Ю.Максутов, К.Салех, О.Буракова, Даша Жердева
    Описание: Опытная обольстительница увела своего партнера-музыканта и добропорядочного мужа из семьи и увезла его в Стамбул на сезонную халтуру - работу в ресторане. Брошенная жена в слезах не может поверить в вероломство мужа. А 12-летняя дочка Даша сразу начинает действовать - звонит своему “крутому” дяде Борису и просит вернуть обратно папу. Дядя Боря обещает и свое слово сдерживает...
    Доп. информация:
    Сценарист: Анатолий Эйрамджан
    Оператор: Евгений Давыдов
    Продюсер: Анатолий Эйрамджан

    Запись потока *.ts с наземного цифрового телеканала "Беларусь 3", ремукс в *.mkv программой VideoReDo.
    Качество видео: DVB-AVC
    Формат/Контейнер: MKV
    Видео кодек: H.264
    Аудио кодек: MP2
    Видео поток: AVC (H264), 720x576 (4:3), 25 fps, 2 190 Kbps
    Аудио поток: MP2, 256 kbps, 2 channels, 48 kHz
    Сэмпл: http://multi-up.com/1107520

    MediaInfo

    GeneralUnique ID : 65975649020194440028062365038973819905 (0x31A272A3567BFF3DD421CE417E601C01)Complete name : D:\Новая земля 2\00001\Мы сделали это (2001)\Мы сделали это (2001).mkvFormat : MatroskaFormat version : Version 2File size : 1.17 GiBDuration : 1h 6mnOverall bit rate : 2 495 KbpsWriting application : Lavf52.64.2Writing library : Lavf52.64.2
    VideoID : 1Format : AVCFormat/Info : Advanced Video CodecFormat profile : Main@L3.0Format settings, CABAC : YesFormat settings, ReFrames : 4 framesCodec ID : V_MPEG4/ISO/AVCDuration : 1h 6mnBit rate : 2 190 KbpsWidth : 720 pixelsHeight : 576 pixelsDisplay aspect ratio : 4:3Original display aspect ratio : 4:3Frame rate mode : ConstantFrame rate : 25.000 fpsStandard : PALColor space : YUVChroma subsampling : 4:2:0Bit depth : 8 bitsScan type : MBAFFScan order : Top Field FirstBits/(Pixel*Frame) : 0.211Stream size : 1.02 GiB (88%)Default : YesForced : NoColor primaries : BT.601 PALTransfer characteristics : BT.470 System B, BT.470 System GMatrix coefficients : BT.601Color range : Limited
    AudioID : 2Format : MPEG AudioFormat version : Version 1Format profile : Layer 2Codec ID : A_MPEG/L2Codec ID/Hint : MP2Duration : 1h 6mnBit rate mode : ConstantBit rate : 256 KbpsChannel(s) : 2 channelsSampling rate : 48.0 KHzCompression mode : LossyStream size : 122 MiB (10%)Language : EnglishDefault : YesForced : No

    Скриншоты

    Скачать .torrent

    Скачать торрент-файл бесплатно и на максимальной скорости!

    Как скачивать? · Что такое торрент? · Рейтинг и ограничения

    !ВНИМАНИЕ!
    Сайт не распространяет и не хранит электронные версии произведений, а занимается лишь лишь предоставлением доступа к создаваемому пользователями каталогу ссылок на торрент-файлы, которые содержат только списки хеш-сумм, убедительная просьба с жалобами обращаться напрямую к пользователю. Файлы для обмена на трекере предоставлены пользователями сайта, и администрация не несёт ответственности за их содержание. Просьба не заливать файлы, защищенные авторскими правами, а также файлы нелегального содержания!


    _________________
    [Профиль] [ЛС]
    Показать сообщения:    
    Ответить на тему

    Текущее время: Сегодня, в 00:19

    Часовой пояс: GMT + 2



    Вы не можете начинать темы
    Вы не можете отвечать на сообщения
    Вы не можете редактировать свои сообщения
    Вы не можете удалять свои сообщения
    Вы не можете голосовать в опросах
    Вы не можете прикреплять файлы к сообщениям
    Вы не можете скачивать файлы