BitTorrentTracker PerecTracker.org
BitTorrentTracker PerecTracker.org
    
Регистрация  ·  Вход
 
 · 
Забыли пароль?

  • Синистер 2 / Sinister 2 (Киран Фой / Ciarán Foy) [2015, США, Великобритания, ужасы, триллер, детектив, BDRip 720p] [NOR Transfer] Dub (НТВ+) + Sub Eng + Original Eng

    Ответить на тему
     
    Автор Сообщение

    Light

    Создавать темы 29-Июн-2016 01:48

           

    [Цитировать]

    Синистер 2 / Sinister 2«Бойся того, во что играют твои дети»
    Страна: США, Великобритания
    Жанр: ужасы, триллер, детектив
    Год выпуска: 2015
    Продолжительность: 01:36:47
    Перевод: Профессиональный (дублированный) НТВ+
    Cубтитры: английские
    Оригинальная аудиодорожка: английский
    -
    Режиссер: Киран Фой / Ciarán Foy
    В ролях: Джеймс Рэнсон, Шаннин Соссамон, Роберт Дэниэл Слоун, Дартаниан Слоун, Лиа Коко, Тейт Эллингтон, Джон Бизли, Лукас Джейд Зуманн, Джейден Клейн, Лайла Хейли
    -
    Описание: Серия странных убийств и исчезновение детей не дают покоя молодому шерифу. Неофициально он продолжает свое расследование, до тех пор, пока в мрачный дом не вселяется новая семья. Мать с двумя детьми, скрываясь от жестокого мужа, приезжает из другого города и занимает пустующий дом. Шериф берет их под свое наблюдение, и не зря: почуяв детские души, демон Багул просыпается. Но как убедить и без того напуганную женщину сменить место жительства? Ведь дом такой уютный и светлый... И только внутри себя прячет он мрак и смерть.

    Тип релиза: BDRip 720p
    Контейнер: MKV
    Видео: H.264 / NTSC 16:9 / 1280x534 (2,40:1) / 4786 kbps / 24 fps / 0.292 bit/pixel / High@L4.1
    Аудио 1: Russian / Dolby Digital Audio / 2.0 Ch / 48 kHz / 192 kbps / 16 bit / DUB
    Аудио 2: English / Dolby Digital Audio / 5.1 Ch / 48 kHz / 640 kbps / 16 bit / Original
    Формат субтитров: softsub (SRT)
    Навигация по главам: есть

    MediaInfo

    Общее
    Уникальный идентификатор                 : 188694348155743791305069692913139924195 (0x8DF535A4BD5A6ACF82F4A59CE0953CE3)
    Полное имя                               : N:\BDRip 720p\Sinister 2.2015.BDRip.720p.mkv
    Формат                                   : Matroska
    Версия формата                           : Version 4 / Version 2
    Размер файла                             : 3,80 Гбайт
    Продолжительность                        : 1 ч. 36 м.
    Общий поток                              : 5617 Кбит/сек
    Дата кодирования                         : UTC 2016-06-27 10:00:51
    Программа кодирования                    : mkvmerge v9.2.0 ('Photograph') 64bit
    Библиотека кодирования                   : libebml v1.3.3 + libmatroska v1.4.4
    Видео
    Идентификатор                            : 1
    Формат                                   : AVC
    Формат/Информация                        : Advanced Video Codec
    Профиль формата                          : High@L4.1
    Параметр CABAC формата                   : Да
    Параметр ReFrames формата                : 12 кадров
    Идентификатор кодека                     : V_MPEG4/ISO/AVC
    Продолжительность                        : 1 ч. 36 м.
    Битрейт                                  : 4786 Кбит/сек
    Ширина                                   : 1280 пикселей
    Высота                                   : 534 пикселя
    Соотношение сторон                       : 2,40:1
    Режим частоты кадров                     : Постоянный
    Частота кадров                           : 24,000 кадра/сек
    Цветовое пространство                    : YUV
    Субдискретизация насыщенности            : 4:2:0
    Битовая глубина                          : 8 бит
    Тип развёртки                            : Прогрессивная
    Бит/(Пиксели*Кадры)                      : 0.292
    Размер потока                            : 3,23 Гбайт (85%)
    Библиотека кодирования                   : x264 core 142 r2409kMod d6b4e63
    Настройки программы                      : cabac=1 / ref=12 / deblock=1:-3:-3 / analyse=0x3:0x133 / me=umh / subme=10 / psy=1 / fade_compensate=0.00 / psy_rd=1.00:0.00 / mixed_ref=1 / me_range=32 / chroma_me=1 / trellis=2 / 8x8dct=1 / cqm=0 / deadzone=21,11 / fast_pskip=0 / chroma_qp_offset=-2 / threads=6 / lookahead_threads=1 / sliced_threads=0 / nr=0 / decimate=0 / interlaced=0 / bluray_compat=0 / constrained_intra=0 / fgo=0 / bframes=8 / b_pyramid=2 / b_adapt=2 / b_bias=0 / direct=3 / weightb=1 / open_gop=0 / weightp=2 / keyint=250 / keyint_min=24 / scenecut=40 / intra_refresh=0 / rc=crf / mbtree=0 / crf=15.2000 / qcomp=0.60 / qpmin=0 / qpmax=69 / qpstep=4 / ip_ratio=1.35 / pb_ratio=1.25 / aq=3:0.80
    Язык                                     : English
    Default                                  : Да
    Forced                                   : Нет
    Цветовой диапазон                        : Limited
    Коэффициенты матрицы                     : BT.709
    Аудио #1
    Идентификатор                            : 2
    Формат                                   : AC-3
    Формат/Информация                        : Audio Coding 3
    Расширение режима                        : CM (complete main)
    Параметр Endianness формата              : Big
    Идентификатор кодека                     : A_AC3
    Продолжительность                        : 1 ч. 36 м.
    Вид битрейта                             : Постоянный
    Битрейт                                  : 192 Кбит/сек
    Каналы                                   : 2 канала
    Расположение каналов                     : Front: L R
    Частота                                  : 48,0 КГц
    Частота кадров                           : 31,250 кадров/сек (1536 spf)
    Метод сжатия                             : С потерями
    Размер потока                            : 133 Мбайт (3%)
    Заголовок                                : Дублированный / НТВ+
    Язык                                     : Russian
    Default                                  : Да
    Forced                                   : Нет
    Аудио #2
    Идентификатор                            : 3
    Формат                                   : AC-3
    Формат/Информация                        : Audio Coding 3
    Расширение режима                        : CM (complete main)
    Параметр Endianness формата              : Big
    Идентификатор кодека                     : A_AC3
    Продолжительность                        : 1 ч. 36 м.
    Вид битрейта                             : Постоянный
    Битрейт                                  : 640 Кбит/сек
    Каналы                                   : 6 каналов
    Расположение каналов                     : Front: L C R, Side: L R, LFE
    Частота                                  : 48,0 КГц
    Частота кадров                           : 31,250 кадров/сек (1536 spf)
    Метод сжатия                             : С потерями
    Размер потока                            : 443 Мбайт (11%)
    Заголовок                                : Original
    Язык                                     : English
    Default                                  : Нет
    Forced                                   : Нет
    Текст
    Идентификатор                            : 4
    Формат                                   : UTF-8
    Идентификатор кодека                     : S_TEXT/UTF8
    Идентификатор кодека/Информация          : UTF-8 Plain Text
    Продолжительность                        : 1 ч. 25 м.
    Битрейт                                  : 38 бит/сек
    Count of elements                        : 938
    Размер потока                            : 24,2 Кбайт (0%)
    Заголовок                                : Original
    Язык                                     : English
    Default                                  : Нет
    Forced                                   : Нет
    Меню
    00:00:00.000                             : en:00:00:00.000
    00:13:08.167                             : en:00:13:08.167
    00:25:17.667                             : en:00:25:17.667
    00:36:24.208                             : en:00:36:24.208
    00:48:48.083                             : en:00:48:48.083
    01:00:53.333                             : en:01:00:53.333
    01:12:35.625                             : en:01:12:35.625
    01:24:44.917                             : en:01:24:44.917

    Скриншоты

    Скачать .torrent

    Скачать торрент-файл бесплатно и на максимальной скорости!

    Как скачивать? · Что такое торрент? · Рейтинг и ограничения

    !ВНИМАНИЕ!
    Сайт не распространяет и не хранит электронные версии произведений, а занимается лишь лишь предоставлением доступа к создаваемому пользователями каталогу ссылок на торрент-файлы, которые содержат только списки хеш-сумм, убедительная просьба с жалобами обращаться напрямую к пользователю. Файлы для обмена на трекере предоставлены пользователями сайта, и администрация не несёт ответственности за их содержание. Просьба не заливать файлы, защищенные авторскими правами, а также файлы нелегального содержания!


    _________________
    [Профиль] [ЛС]
    Показать сообщения:    
    Ответить на тему

    Текущее время: Сегодня, в 08:53

    Часовой пояс: GMT + 2



    Вы не можете начинать темы
    Вы не можете отвечать на сообщения
    Вы не можете редактировать свои сообщения
    Вы не можете удалять свои сообщения
    Вы не можете голосовать в опросах
    Вы не можете прикреплять файлы к сообщениям
    Вы не можете скачивать файлы