BitTorrentTracker PerecTracker.org
BitTorrentTracker PerecTracker.org
    
Регистрация  ·  Вход
 
 · 
Забыли пароль?

  • Любовь сквозь время / Winter\'s Tale (Акива Голдсман / Akiva Goldsman) [2014, США, фэнтези, драма, мелодрама, детектив, BDRip 720p] Dub + 2x AVO (Сербин, Дольский) + 2x VO (Нурмухаметов, Яроцкий) + Original (Eng) + Sub (Rus, Ukr, Eng)

    Ответить на тему
     
    Автор Сообщение

    Light

    Создавать темы 29-Июн-2016 01:48

           

    [Цитировать]

    Любовь сквозь время / Winter's Tale«Когда случаются чудеса»-Страна: США
    Жанр: фэнтези, драма, мелодрама, детектив
    Год выпуска: 2014
    Продолжительность: 01:58:04-Перевод №1: Профессиональный (дублированный) - Blu-ray CEE
    Перевод №2: Авторский (одноголосый закадровый) - Юрий Сербин
    Перевод №3: Авторский (одноголосый закадровый) - Андрей Дольский
    Перевод №4: Одноголосый закадровый - Данис Нурмухаметов
    Перевод №5: Одноголосый закадровый - Михаил Яроцкий - kyberpunk
    Оригинальная аудиодорожка: English
    Cубтитры: Русские (форсированные + полные №1 + полные №2 - Данис Нурмухаметов), украинские (форсированные + полные), English (full + full SDH + full SDH Colored)
    Навигация по главам: присутствует - 12 глав-Режиссер: Акива Голдсман / Akiva Goldsman
    В ролях: Колин Фаррелл, Джессика Браун-Финдли, Рассел Кроу, Дженнифер Коннелли, Уилл Смит, Уильям Хёрт, МакКайла Твиггс, Ева Мари Сэйнт, Рипли Собо, Кевин Корригэн-Описание: Питер Лэйк — талантливый вор, который и подумать не мог, что его собственное сердце украдет очаровательная Беверли Пенн. Но их любовь родилась под несчастливой звездой: Беверли угасает на глазах от неизлечимой болезни, а Питеру суждена куда более жестокая смерть от рук его давнего наставника, демона Перли Сомса. Питер отчаянно пытается спасти свою истинную любовь: сквозь века, вопреки силам тьмы, несмотря на то, что Перли делает все от него зависящее, чтобы одержать верх, ведь победитель получает все, а проигравший будет проклят навеки.- -Качество видео: BDRip 720p | HiDt - thx: Talian70
    Формат: MKV-Видео: 1280x534 (2.40:1), 23.976 fps, H.264, 5639.75 kb/s, 0.339 bit/pixel
    Аудио №1: 48.0 kHz, AC3 Dolby Digital, 3/2 (L,C,R,l,r) + LFE ch, ~640 kbps avg | Профессиональный (дублированный) - Blu-ray CEE
    Аудио №2: 48.0 kHz, AC3 Dolby Digital, 3/2 (L,C,R,l,r) + LFE ch, ~640 kbps avg | Авторский (одноголосый закадровый) - Юрий Сербин
    Аудио №3: 48.0 kHz, AC3 Dolby Digital, 3/2 (L,C,R,l,r) + LFE ch, ~640 kbps avg | Авторский (одноголосый закадровый) - Андрей Дольский
    Аудио №4: 48.0 kHz, AC3 Dolby Digital, 3/2 (L,C,R,l,r) + LFE ch, ~640 kbps avg | Одноголосый закадровый - Данис Нурмухаметов
    Аудио №5: 48.0 kHz, AC3 Dolby Digital, 3/2 (L,C,R,l,r) + LFE ch, ~640 kbps avg | Одноголосый закадровый - Михаил Яроцкий - kyberpunk
    Аудио №6: 48.0 kHz, AC3 Dolby Digital, 2/0 (L,R) ch, ~192 kbps avg | Украинский - Профессиональный (дублированный) - iTunes
    Аудио №7: 48.0 kHz, AC3 Dolby Digital, 3/2 (L,C,R,l,r) + LFE ch, ~640 kbps avg | English
    Субтитры №1: Русские (форсированные) | *.srt
    Субтитры №2: Русские (полные) | *.srt
    Субтитры №3: Русские (полные - Данис Нурмухаметов) | *.srt
    Субтитры №4: Украинские (форсированные) | *.srt
    Субтитры №5: Украинские (полные) | *.srt
    Субтитры №6: English (full) | *.srt
    Субтитры №7: English (full SDH) | *.srt
    Субтитры №8: English (full SDH Colored) | *.srt-

    MediaInfo

    General
    Unique ID : 217019117821451610417323962349310945883 (0xA3445C9BC2220728B3FB3A7E5D6BAA5B)
    Complete name : D:\Фильмы\Рипы\Winter's Tale.2014.BDRip 720p.rutracker.mkv
    Format : Matroska
    Format version : Version 4 / Version 2
    File size : 8.07 GiB
    Duration : 1h 58mn
    Overall bit rate : 9 778 Kbps
    Movie name : Любовь сквозь время / Winter's Tale (2014) - Release for rutracker
    Encoded date : UTC 2016-06-27 12:27:44
    Writing application : mkvmerge v9.2.0 ('Photograph') 64bit
    Writing library : libebml v1.3.3 + libmatroska v1.4.4
    Attachements : cover.png
    DURATION : 01:49:50.420000000
    NUMBER_OF_FRAMES : 1223
    NUMBER_OF_BYTES : 39815
    _STATISTICS_WRITING_APP : mkvmerge v9.2.0 ('Photograph') 64bit
    _STATISTICS_WRITING_DATE_UT : 2016-06-27 12:27:44
    _STATISTICS_TAGS : BPS DURATION NUMBER_OF_FRAMES NUMBER_OF_BYTES
    Video
    ID : 1
    Format : AVC
    Format/Info : Advanced Video Codec
    Format profile : High@L4.1
    Format settings, CABAC : Yes
    Format settings, ReFrames : 12 frames
    Codec ID : V_MPEG4/ISO/AVC
    Duration : 1h 58mn
    Bit rate : 5 552 Kbps
    Width : 1 280 pixels
    Height : 534 pixels
    Display aspect ratio : 2.40:1
    Frame rate mode : Constant
    Frame rate : 23.976 fps
    Color space : YUV
    Chroma subsampling : 4:2:0
    Bit depth : 8 bits
    Scan type : Progressive
    Bits/(Pixel*Frame) : 0.339
    Stream size : 4.58 GiB (57%)
    Title : HiDt
    Writing library : x264 core 138 r2358 9e941d1
    Encoding settings : cabac=1 / ref=12 / deblock=1:-3:-3 / analyse=0x3:0x113 / me=tesa / subme=11 / psy=1 / psy_rd=1.05:0.00 / mixed_ref=1 / me_range=16 / chroma_me=1 / trellis=2 / 8x8dct=1 / cqm=0 / deadzone=21,11 / fast_pskip=0 / chroma_qp_offset=-2 / threads=12 / lookahead_threads=2 / sliced_threads=0 / nr=0 / decimate=1 / interlaced=0 / bluray_compat=0 / constrained_intra=0 / bframes=8 / b_pyramid=2 / b_adapt=2 / b_bias=0 / direct=3 / weightb=1 / open_gop=0 / weightp=2 / keyint=240 / keyint_min=23 / scenecut=40 / intra_refresh=0 / rc=crf / mbtree=0 / crf=14.6 / qcomp=0.70 / qpmin=0 / qpmax=69 / qpstep=4 / ip_ratio=1.20 / pb_ratio=1.20 / aq=1:1.00 / zones=65512,66232,crf=14/162804,163163,crf=30/163248,163639,crf=30/163757,164092,crf=30/164161,167332,crf=30/167385,167791,crf=30/167887,168272,crf=30/168331,168669,crf=30
    Language : English
    Default : Yes
    Forced : No
    Color range : Limited
    Matrix coefficients : BT.709
    DURATION : 01:58:04.995000000
    NUMBER_OF_FRAMES : 169870
    NUMBER_OF_BYTES : 5083263039
    _STATISTICS_WRITING_APP : mkvmerge v9.2.0 ('Photograph') 64bit
    _STATISTICS_WRITING_DATE_UT : 2016-06-27 12:27:44
    _STATISTICS_TAGS : BPS DURATION NUMBER_OF_FRAMES NUMBER_OF_BYTES
    Audio #1
    ID : 2
    Format : AC-3
    Format/Info : Audio Coding 3
    Mode extension : CM (complete main)
    Format settings, Endianness : Big
    Codec ID : A_AC3
    Duration : 1h 58mn
    Bit rate mode : Constant
    Bit rate : 640 Kbps
    Channel(s) : 6 channels
    Channel positions : Front: L C R, Side: L R, LFE
    Sampling rate : 48.0 KHz
    Compression mode : Lossy
    Stream size : 541 MiB (7%)
    Title : Профессиональный (дублированный) - Blu-ray CEE
    Language : Russian
    Default : Yes
    Forced : No
    Audio #2
    ID : 3
    Format : AC-3
    Format/Info : Audio Coding 3
    Mode extension : CM (complete main)
    Format settings, Endianness : Big
    Codec ID : A_AC3
    Duration : 1h 58mn
    Bit rate mode : Constant
    Bit rate : 640 Kbps
    Channel(s) : 6 channels
    Channel positions : Front: L C R, Side: L R, LFE
    Sampling rate : 48.0 KHz
    Compression mode : Lossy
    Stream size : 541 MiB (7%)
    Title : Авторский (одноголосый закадровый) - Юрий Сербин
    Language : Russian
    Default : No
    Forced : No
    Audio #3
    ID : 4
    Format : AC-3
    Format/Info : Audio Coding 3
    Mode extension : CM (complete main)
    Format settings, Endianness : Big
    Codec ID : A_AC3
    Duration : 1h 58mn
    Bit rate mode : Constant
    Bit rate : 640 Kbps
    Channel(s) : 6 channels
    Channel positions : Front: L C R, Side: L R, LFE
    Sampling rate : 48.0 KHz
    Compression mode : Lossy
    Stream size : 541 MiB (7%)
    Title : Авторский (одноголосый закадровый) - Андрей Дольский
    Language : Russian
    Default : No
    Forced : No
    Audio #4
    ID : 5
    Format : AC-3
    Format/Info : Audio Coding 3
    Mode extension : CM (complete main)
    Format settings, Endianness : Big
    Codec ID : A_AC3
    Duration : 1h 58mn
    Bit rate mode : Constant
    Bit rate : 640 Kbps
    Channel(s) : 6 channels
    Channel positions : Front: L C R, Side: L R, LFE
    Sampling rate : 48.0 KHz
    Compression mode : Lossy
    Stream size : 541 MiB (7%)
    Title : Одноголосый закадровый - Данис Нурмухаметов
    Language : Russian
    Default : No
    Forced : No
    Audio #5
    ID : 6
    Format : AC-3
    Format/Info : Audio Coding 3
    Mode extension : CM (complete main)
    Format settings, Endianness : Big
    Codec ID : A_AC3
    Duration : 1h 58mn
    Bit rate mode : Constant
    Bit rate : 640 Kbps
    Channel(s) : 6 channels
    Channel positions : Front: L C R, Side: L R, LFE
    Sampling rate : 48.0 KHz
    Compression mode : Lossy
    Stream size : 541 MiB (7%)
    Title : Одноголосый закадровый - Михаил Яроцкий - kyberpunk
    Language : Russian
    Default : No
    Forced : No
    Audio #6
    ID : 7
    Format : AC-3
    Format/Info : Audio Coding 3
    Mode extension : CM (complete main)
    Format settings, Endianness : Big
    Codec ID : A_AC3
    Duration : 1h 58mn
    Bit rate mode : Constant
    Bit rate : 192 Kbps
    Channel(s) : 2 channels
    Channel positions : Front: L R
    Sampling rate : 48.0 KHz
    Compression mode : Lossy
    Stream size : 162 MiB (2%)
    Title : Профессиональный (дублированный) - iTunes
    Language : Ukrainian
    Default : No
    Forced : No
    Audio #7
    ID : 8
    Format : AC-3
    Format/Info : Audio Coding 3
    Mode extension : CM (complete main)
    Format settings, Endianness : Big
    Codec ID : A_AC3
    Duration : 1h 58mn
    Bit rate mode : Constant
    Bit rate : 640 Kbps
    Channel(s) : 6 channels
    Channel positions : Front: L C R, Side: L R, LFE
    Sampling rate : 48.0 KHz
    Compression mode : Lossy
    Stream size : 541 MiB (7%)
    Language : English
    Default : No
    Forced : No
    Text #1
    ID : 9
    Format : UTF-8
    Codec ID : S_TEXT/UTF8
    Codec ID/Info : UTF-8 Plain Text
    Title : форсированные
    Language : Russian
    Default : Yes
    Forced : No
    Text #2
    ID : 10
    Format : UTF-8
    Codec ID : S_TEXT/UTF8
    Codec ID/Info : UTF-8 Plain Text
    Title : полные
    Language : Russian
    Default : No
    Forced : No
    Text #3
    ID : 11
    Format : UTF-8
    Codec ID : S_TEXT/UTF8
    Codec ID/Info : UTF-8 Plain Text
    Title : полные - Данис Нурмухаметов
    Language : Russian
    Default : No
    Forced : No
    Text #4
    ID : 12
    Format : UTF-8
    Codec ID : S_TEXT/UTF8
    Codec ID/Info : UTF-8 Plain Text
    Title : форсированные
    Language : Ukrainian
    Default : No
    Forced : No
    Text #5
    ID : 13
    Format : UTF-8
    Codec ID : S_TEXT/UTF8
    Codec ID/Info : UTF-8 Plain Text
    Title : полные
    Language : Ukrainian
    Default : No
    Forced : No
    Text #6
    ID : 14
    Format : UTF-8
    Codec ID : S_TEXT/UTF8
    Codec ID/Info : UTF-8 Plain Text
    Title : full
    Language : English
    Default : No
    Forced : No
    Text #7
    ID : 15
    Format : UTF-8
    Codec ID : S_TEXT/UTF8
    Codec ID/Info : UTF-8 Plain Text
    Title : full SDH
    Language : English
    Default : No
    Forced : No
    Text #8
    ID : 16
    Format : UTF-8
    Codec ID : S_TEXT/UTF8
    Codec ID/Info : UTF-8 Plain Text
    Title : full SDH Colored
    Language : English
    Default : No
    Forced : No
    Menu
    00:00:00.000 : en:Chapter 1
    00:10:45.853 : en:Chapter 2
    00:20:09.958 : en:Chapter 3
    00:30:41.047 : en:Chapter 4
    00:40:14.453 : en:Chapter 5
    00:52:37.904 : en:Chapter 6
    01:00:17.447 : en:Chapter 7
    01:09:26.996 : en:Chapter 8
    01:20:44.005 : en:Chapter 9
    01:30:54.991 : en:Chapter 10
    01:39:53.654 : en:Chapter 11
    01:50:38.506 : en:Chapter 12

    x264 log

    x264 [info]: x264 [info]: frame I:1361 Avg QP:11.46 size:119287
    x264 [info]: frame P:37080 Avg QP:12.53 size:56516
    x264 [info]: frame B:131429 Avg QP:13.18 size:21497
    x264 [info]: consecutive B-frames: 2.1% 2.9% 5.8% 30.8% 12.9% 25.7% 6.2% 11.4% 2.2%
    x264 [info]: encoded 169870 frames, 2.49 fps, 5639.75 kb/s

    Screenshots

    Comparison

    Source

    Encode
    Цитата:

    • За аудио №2, №3, №4 и №5 большое спасибо Jiraya87, а также за авторские субтитры Даниса Нурмухаметова и English (full SDH Colored).
    • За видео и остальное составляющие спасибо Talian70.
    Скачать .torrent

    Скачать торрент-файл бесплатно и на максимальной скорости!

    Как скачивать? · Что такое торрент? · Рейтинг и ограничения

    !ВНИМАНИЕ!
    Сайт не распространяет и не хранит электронные версии произведений, а занимается лишь лишь предоставлением доступа к создаваемому пользователями каталогу ссылок на торрент-файлы, которые содержат только списки хеш-сумм, убедительная просьба с жалобами обращаться напрямую к пользователю. Файлы для обмена на трекере предоставлены пользователями сайта, и администрация не несёт ответственности за их содержание. Просьба не заливать файлы, защищенные авторскими правами, а также файлы нелегального содержания!


    _________________
    [Профиль] [ЛС]
    Показать сообщения:    
    Ответить на тему

    Текущее время: Сегодня, в 22:19

    Часовой пояс: GMT + 2



    Вы не можете начинать темы
    Вы не можете отвечать на сообщения
    Вы не можете редактировать свои сообщения
    Вы не можете удалять свои сообщения
    Вы не можете голосовать в опросах
    Вы не можете прикреплять файлы к сообщениям
    Вы не можете скачивать файлы