BitTorrentTracker PerecTracker.org
BitTorrentTracker PerecTracker.org
    
Регистрация  ·  Вход
 
 · 
Забыли пароль?

  • Йосемити / Yosemite (Габриэль Демистере / Gabrielle Demeestere) [2015, Франция, драма, WEB-DL 720p] VO (PashaUp) + 2x Sub (Rus, Eng) + Original Eng

    Ответить на тему
     
    Автор Сообщение

    Light

    Создавать темы 29-Июн-2016 01:48

           

    [Цитировать]

    Йосемити / Yosemite«Growing up is an adventure»
    Страна: Франция
    Жанр: драма
    Год выпуска: 2015
    Продолжительность: 01:21:54
    Перевод: Одноголосый закадровый PashaUp
    Cубтитры: русские (Vova Ramone, bg-nomad), английские
    Оригинальная аудиодорожка: английский
    -
    Режиссер: Габриэль Демистере / Gabrielle Demeestere
    В ролях: Джеймс Франко, Генри Хоппер, Бэрри Дель Шерман, Стивен Уиг, Тодд Броци, Джордж Магуайр, Карлайл Форрестер, Клара Аранович, Алек Манский, Трой Тиннирелло
    -
    Описание: Действие происходит осенью 1985 года. В центре сюжета переплетающиеся истории трех друзей Криса, Джо и Теда, живущих в беспечном пригороде Пало Альто. Но спокойствие их мира нарушается, когда в окрестностях появляется кровожадная пума.

    Тип релиза: WEB-DL 720p
    Контейнер: MKV
    Видео: H.264 / NTSC 16:9 / 1280x686 (1,85:1) / 3963 kbps / 23,976 fps / 0.188 bit/pixel / High@L3.1
    Аудио 1: Russian / Dolby Digital Audio / 2.0 Ch / 48 kHz / 192 kbps / 16 bit / VO
    Аудио 2: English / Dolby Digital Audio / 5.1 Ch / 48 kHz / 384 kbps / 16 bit / Original
    Формат субтитров: softsub (SRT)
    Навигация по главам: есть

    MediaInfo

    Общее
    Уникальный идентификатор                 : 200726748390148910607131276177080156051 (0x970290C6FE74D66C8CD0BDCD95317F93)
    Полное имя                               : N:\WEB-DL 720p\Yosemite.2015.WEB-DL.720p.mkv
    Формат                                   : Matroska
    Версия формата                           : Version 4 / Version 2
    Размер файла                             : 2,60 Гбайт
    Продолжительность                        : 1 ч. 21 м.
    Общий поток                              : 4541 Кбит/сек
    Дата кодирования                         : UTC 2016-06-27 17:58:20
    Программа кодирования                    : mkvmerge v9.2.0 ('Photograph') 64bit
    Библиотека кодирования                   : libebml v1.3.3 + libmatroska v1.4.4
    Видео
    Идентификатор                            : 1
    Формат                                   : AVC
    Формат/Информация                        : Advanced Video Codec
    Профиль формата                          : High@L3.1
    Параметр CABAC формата                   : Нет
    Параметр ReFrames формата                : 2 кадра
    Идентификатор кодека                     : V_MPEG4/ISO/AVC
    Продолжительность                        : 1 ч. 21 м.
    Битрейт                                  : 3963 Кбит/сек
    Ширина                                   : 1280 пикселей
    Высота                                   : 686 пикселей
    Соотношение сторон                       : 1,85:1
    Режим частоты кадров                     : Постоянный
    Частота кадров                           : 23,976 (23976/1000) кадра/сек
    Цветовое пространство                    : YUV
    Субдискретизация насыщенности            : 4:2:0
    Битовая глубина                          : 8 бит
    Тип развёртки                            : Прогрессивная
    Бит/(Пиксели*Кадры)                      : 0.188
    Размер потока                            : 2,27 Гбайт (87%)
    Язык                                     : English
    Default                                  : Да
    Forced                                   : Нет
    Цветовой диапазон                        : Limited
    Основные цвета                           : BT.709
    Характеристики трансфера                 : BT.709
    Коэффициенты матрицы                     : BT.709
    Аудио #1
    Идентификатор                            : 2
    Формат                                   : AC-3
    Формат/Информация                        : Audio Coding 3
    Расширение режима                        : CM (complete main)
    Параметр Endianness формата              : Big
    Идентификатор кодека                     : A_AC3
    Продолжительность                        : 1 ч. 21 м.
    Вид битрейта                             : Постоянный
    Битрейт                                  : 192 Кбит/сек
    Каналы                                   : 2 канала
    Расположение каналов                     : Front: L R
    Частота                                  : 48,0 КГц
    Частота кадров                           : 31,250 кадров/сек (1536 spf)
    Метод сжатия                             : С потерями
    Размер потока                            : 112 Мбайт (4%)
    Заголовок                                : VO / PashaUp
    Язык                                     : Russian
    Default                                  : Да
    Forced                                   : Нет
    Аудио #2
    Идентификатор                            : 3
    Формат                                   : AC-3
    Формат/Информация                        : Audio Coding 3
    Расширение режима                        : CM (complete main)
    Параметр Endianness формата              : Big
    Идентификатор кодека                     : A_AC3
    Продолжительность                        : 1 ч. 21 м.
    Вид битрейта                             : Постоянный
    Битрейт                                  : 384 Кбит/сек
    Каналы                                   : 6 каналов
    Расположение каналов                     : Front: L C R, Side: L R, LFE
    Частота                                  : 48,0 КГц
    Частота кадров                           : 31,250 кадров/сек (1536 spf)
    Метод сжатия                             : С потерями
    Размер потока                            : 225 Мбайт (8%)
    Заголовок                                : Original
    Язык                                     : English
    Default                                  : Нет
    Forced                                   : Нет
    Текст #1
    Идентификатор                            : 4
    Формат                                   : UTF-8
    Идентификатор кодека                     : S_TEXT/UTF8
    Идентификатор кодека/Информация          : UTF-8 Plain Text
    Продолжительность                        : 1 ч. 14 м.
    Битрейт                                  : 66 бит/сек
    Count of elements                        : 591
    Размер потока                            : 36,5 Кбайт (0%)
    Заголовок                                : Vova Ramone, bg-nomad
    Язык                                     : Russian
    Default                                  : Нет
    Forced                                   : Нет
    Текст #2
    Идентификатор                            : 5
    Формат                                   : UTF-8
    Идентификатор кодека                     : S_TEXT/UTF8
    Идентификатор кодека/Информация          : UTF-8 Plain Text
    Продолжительность                        : 1 ч. 13 м.
    Битрейт                                  : 36 бит/сек
    Count of elements                        : 797
    Размер потока                            : 19,7 Кбайт (0%)
    Заголовок                                : Original
    Язык                                     : English
    Default                                  : Нет
    Forced                                   : Нет
    Меню
    00:00:00.000                             : en:Chris
    00:23:48.000                             : en:Joe
    00:51:57.000                             : en:Ted
    01:05:20.000                             : en:There’s Nothing There
    01:17:16.000                             : en:End Credits

    Скриншоты

    Скачать .torrent

    Скачать торрент-файл бесплатно и на максимальной скорости!

    Как скачивать? · Что такое торрент? · Рейтинг и ограничения

    !ВНИМАНИЕ!
    Сайт не распространяет и не хранит электронные версии произведений, а занимается лишь лишь предоставлением доступа к создаваемому пользователями каталогу ссылок на торрент-файлы, которые содержат только списки хеш-сумм, убедительная просьба с жалобами обращаться напрямую к пользователю. Файлы для обмена на трекере предоставлены пользователями сайта, и администрация не несёт ответственности за их содержание. Просьба не заливать файлы, защищенные авторскими правами, а также файлы нелегального содержания!


    _________________
    [Профиль] [ЛС]
    Показать сообщения:    
    Ответить на тему

    Текущее время: Сегодня, в 02:28

    Часовой пояс: GMT + 2



    Вы не можете начинать темы
    Вы не можете отвечать на сообщения
    Вы не можете редактировать свои сообщения
    Вы не можете удалять свои сообщения
    Вы не можете голосовать в опросах
    Вы не можете прикреплять файлы к сообщениям
    Вы не можете скачивать файлы