BitTorrentTracker PerecTracker.org
BitTorrentTracker PerecTracker.org
    
Регистрация  ·  Вход
 
 · 
Забыли пароль?

  • Пернатая банда / El Americano: The Movie ( Рикардо Арнаиз, Майк Кункель / Ricardo Arnaiz, Mike Kunkel ) [2016, Мексика, США, Мультфильм, боевик, комедия, приключения, семейный, полнометражный, WEBRip] Dub

    Ответить на тему
     
    Автор Сообщение

    Flirldrerve

    Создавать темы 29-Июн-2016 01:48

           

    [Цитировать]

    Пернатая банда / El Americano: The Movie
    Страна: Мексика, США
    Жанр: Мультфильм, боевик, комедия, приключения, семейный, полнометражный
    Год выпуска: 2016
    Продолжительность: 01:27:51
    Перевод: Профессиональный (дублированный)
    Cубтитры: нет
    Оригинальная аудиодорожка: нет
    Режиссер: Рикардо Арнаиз, Майк Кункель / Ricardo Arnaiz, Mike Kunkel
    В ролях: Эдвард Джеймс Олмос, Рико Родригес, Чич Марин, Кейт дель Кастильо, Алекс Синтек, Эрик Эстрада, Пьер Анджело, Дон Чето, Рикардо Санчес
    Описание: Как и все подростки, попугай Куко обожает находить занятия поинтереснее, чем помогать старшим в скучных домашних делах. Например, фанатеть от своего любимого телегероя, крутого супер-пернатого Эль Американо! Все меняется, когда банда птиц-раздолбаев грозится забрать у отца Куко цирковую арену, поколениями принадлежащей их семье. Куко решает, что без помощи Эль Американо ну никак не обойтись и он отправляется в полное опасностей путешествие в Голливуд, в конце пути открыв супергероя внутри себя самого.
    Сэмпл: http://multi-up.com/1107639
    Качество видео: WEBRip / WEBRip 720p
    Формат видео: AVI
    Видео: 720x400 (1.80:1), 25 fps, XviD build 65 ~2095 kbps avg, 0.29 bit/pixel
    Аудио: 48 kHz, AC3 Dolby Digital, 2/0 (L,R) ch, ~192 kbps

    MediaInfo

    General
    Complete name : D:\Фильмы\El Americano The Movi_2016_Toriyal_Ruracker.avi
    Format : AVI
    Format/Info : Audio Video Interleave
    File size : 1.41 GiB
    Duration : 1h 27mn
    Overall bit rate : 2 297 Kbps
    Writing application : VirtualDubMod 1.5.10.3 | www.virtualdub-fr.org || (build 2550/release)
    Writing library : VirtualDubMod build 2550/release
    Video
    ID : 0
    Format : MPEG-4 Visual
    Format profile : Advanced Simple@L5
    Format settings, BVOP : 2
    Format settings, QPel : No
    Format settings, GMC : No warppoints
    Format settings, Matrix : Custom
    Codec ID : XVID
    Codec ID/Hint : XviD
    Duration : 1h 27mn
    Bit rate : 2 096 Kbps
    Width : 720 pixels
    Height : 400 pixels
    Display aspect ratio : 16:9
    Frame rate : 25.000 fps
    Color space : YUV
    Chroma subsampling : 4:2:0
    Bit depth : 8 bits
    Scan type : Progressive
    Compression mode : Lossy
    Bits/(Pixel*Frame) : 0.291
    Stream size : 1.29 GiB (91%)
    Writing library : XviD 65
    Audio
    ID : 1
    Format : AC-3
    Format/Info : Audio Coding 3
    Mode extension : CM (complete main)
    Format settings, Endianness : Big
    Codec ID : 2000
    Duration : 1h 27mn
    Bit rate mode : Constant
    Bit rate : 192 Kbps
    Channel(s) : 2 channels
    Channel positions : Front: L R
    Sampling rate : 48.0 KHz
    Frame rate : 31.250 fps (1536 spf)
    Compression mode : Lossy
    Stream size : 121 MiB (8%)
    Alignment : Split accross interleaves
    Interleave, duration : 40 ms (1.00 video frame)
    Interleave, preload duratio : 500 ms

    Скриншоты

    Скачать .torrent

    Скачать торрент-файл бесплатно и на максимальной скорости!

    Как скачивать? · Что такое торрент? · Рейтинг и ограничения

    !ВНИМАНИЕ!
    Сайт не распространяет и не хранит электронные версии произведений, а занимается лишь лишь предоставлением доступа к создаваемому пользователями каталогу ссылок на торрент-файлы, которые содержат только списки хеш-сумм, убедительная просьба с жалобами обращаться напрямую к пользователю. Файлы для обмена на трекере предоставлены пользователями сайта, и администрация не несёт ответственности за их содержание. Просьба не заливать файлы, защищенные авторскими правами, а также файлы нелегального содержания!


    _________________
    [Профиль] [ЛС]
    Показать сообщения:    
    Ответить на тему

    Текущее время: Сегодня, в 22:22

    Часовой пояс: GMT + 2



    Вы не можете начинать темы
    Вы не можете отвечать на сообщения
    Вы не можете редактировать свои сообщения
    Вы не можете удалять свои сообщения
    Вы не можете голосовать в опросах
    Вы не можете прикреплять файлы к сообщениям
    Вы не можете скачивать файлы