BitTorrentTracker PerecTracker.org
BitTorrentTracker PerecTracker.org
    
Регистрация  ·  Вход
 
 · 
Забыли пароль?

  • [ATV3] Кловерфилд, 10 / 10 Cloverfield Lane (Дэн Трактенберг / Dan Trachtenberg) [2016, США, Ужасы, фантастика, триллер, драма, детектив, BDRip, HD (1080p)] DUB + Original + sub (rus, eng)

    Ответить на тему
     
    Автор Сообщение

    rechyn

    Создавать темы 29-Июн-2016 01:48

           

    [Цитировать]

    Кловерфилд, 10 / 10 Cloverfield Lane
    «Монстры бывают разные»
    6.855 / 10 7.40 / 10
    -Год выпуска: 2016
    Страна: США
    Жанр: Ужасы, фантастика, триллер, драма, детектив
    Продолжительность: 01:43:34
    Перевод: Дублированный (iTunes)
    Оригинальная аудиодорожка: Есть
    Cубтитры: Русские, Английские, Английские SDH
    Режиссёр: Дэн Трактенберг
    Сценарий: Джош Кэмпбелл, Мэтт Стюкен, Дэмьен Шазелл
    Продюсер: Джей Джей Абрамс, Линдси Вебер, Брайан Берк
    Оператор: Джефф Каттер
    Композитор: Беар МакКрири
    Художник: Рэмси Эйвери, Мэган МакЛафлин, Мишель Маршан II
    Монтаж: Стефан Грубе
    В ролях: Джон Гудман, Мэри Элизабет Уинстэд, Джон Галлахер мл., Дуглас М. Гриффин, Сюзанн Крайер, Брэдли Купер, Сумали Монтано, Фрэнк Моттек
    Бюджет: $15 000 000
    Сборы в США: $72 082 998
    Сборы в мире: + $36 203 423 = $108 286 421
    Сборы в России: $1 331 748
    Мировая премьера: 8 марта 2016
    Премьера (РФ): 31 марта 2016, «Централ Партнершип»
    Релиз на DVD: 12 июля 2016, «Новый Диск»
    Релиз на Blu-Ray: 12 июля 2016, «Новый Диск»
    Описание: Проснувшись после автомобильной аварии, девушка оказывается в подвале человека, утверждающего, что он спас ей жизнь от химической атаки, которая сделала мир за пределами бункера непригодным для жизни.-Качество исходника: Blu-Ray (BlueBird)
    Качество: BDRip
    Тип: HD (1080p)
    Контейнер: M4V
    Видео: H.264, 1920x800, 2.40:1, 8 000 Kbps, 23.976 fps
    Аудио 1: Русский/Дублированный (iTunes), AAC / 2.0 / 156 Kbps / 48.0 KHz
    Аудио 2: Английский/Оригинальная дорожка , AAC / 2.0 / 157 Kbps / 48.0 KHz
    Аудио 3: Русский/Дублированный (iTunes), AC-3 / 5.1 / 384 Kbps / 48.0 KHz
    Аудио 4: Английский/Оригинальная дорожка , AC-3 / 5.1 / 640 Kbps / 48.0 KHz
    Субтитры 1: Русские полные
    Субтитры 2: Английские полные
    Субтитры 3: Английские SDH
    -

    iTunes Meta Tags

    Sort Name: 10 Cloverfield Lane
    XID: Apple:vendor_id:2016-843463
    contentID: 1085930296
    Copyright: © 2016 PARAMOUNT PICTURES. ALL RIGHTS RESERVED
    Screenwriters: Джош Кэмпбелл, Мэтт Стюкен, Дэмьен Шазелл
    Producers: Джей Джей Абрамс, Линдси Вебер, Брайан Берк
    Director: Дэн Трактенберг
    Cast: Джон Гудман, Мэри Элизабет Уинстэд, Джон Галлахер мл., Дуглас М. Гриффин, Сюзанн Крайер, Брэдли Купер, Сумали Монтано, Фрэнк Моттек, Синди Хоган, Мат Ваиро, Александр Новиков, Мария Иващенко, Даниил Эльдаров, Михаил Тихонов, Сергей Пономарёв
    Studio: Paramount Pictures
    Rating: 4
    Long Description: Проснувшись после автомобильной аварии, девушка оказывается в подвале человека, утверждающего, что он спас ей жизнь от химической атаки, которая сделала мир за пределами бункера непригодным для жизни.
    Description: Проснувшись после автомобильной аварии, девушка оказывается в подвале человека, утверждающего, что он спас ей жизнь от химической атаки, которая сделала мир за пределами бункера непригодным для жизни.
    Release Date: 2016-03-08T08:00:00Z
    Genre: Thriller
    Artist: Dan Trachtenberg
    Name: 10 Cloverfield Lane

    MediaInfo

    General
    Complete name : /Users/imac/HandBrake/10 Cloverfield Lane (1080p HD).m4v
    Format : MPEG-4
    Codec ID : M4V
    File size : 6.76 GiB
    Duration : 1h 43mn
    Overall bit rate mode : Variable
    Overall bit rate : 9 340 Kbps
    Movie name : 10 Cloverfield Lane
    Performer : Dan Trachtenberg
    Director : Дэн Трактенберг
    Actor : Джон Гудман / Мэри Элизабет Уинстэд / Джон Галлахер мл. / Дуглас М. Гриффин / Сюзанн Крайер / Брэдли Купер / Сумали Монтано / Фрэнк Моттек / Синди Хоган / Мат Ваиро / Александр Новиков / Мария Иващенко / Даниил Эльдаров / Михаил Тихонов / Сергей Пономарёв
    Screenplay by : Джош Кэмпбелл / Мэтт Стюкен / Дэмьен Шазелл
    Producer : Джей Джей Абрамс / Линдси Вебер / Брайан Берк
    Production studio : Paramount Pictures
    Genre : Thriller
    ContentType : Short Film
    Description : Проснувшись после автомобильной аварии, девушка оказывается в подвале человека, утверждающего, что он спас ей жизнь от химической атаки, которая сделала мир за пределами бункера непригодным для жизни.
    Recorded date : UTC 2016-03-08 08:00:00
    Encoded date : UTC 2016-06-28 16:24:22
    Tagged date : UTC 2016-06-28 16:27:44
    Copyright : © 2016 PARAMOUNT PICTURES. ALL RIGHTS RESERVED
    Cover : Yes
    Rating : None
    Title/Sort : 10 Cloverfield Lane
    LongDescription : Проснувшись после автомобильной аварии, девушка оказывается в подвале человека, утверждающего, что он спас ей жизнь от химической атаки, которая сделала мир за пределами бункера непригодным для жизни.
    AppleStoreCatalogID : 1085930296
    Vendor : Apple:vendor_id:2016-843463
    ContentRating : mpaa|PG-13|300|
    Video #1
    ID : 1
    Format : AVC
    Format/Info : Advanced Video Codec
    Format profile : High@L4
    Format settings, CABAC : Yes
    Format settings, ReFrames : 4 frames
    Codec ID : avc1
    Codec ID/Info : Advanced Video Coding
    Duration : 1h 43mn
    Source duration : 1h 43mn
    Bit rate : 8 000 Kbps
    Width : 1 920 pixels
    Height : 800 pixels
    Display aspect ratio : 2.40:1
    Frame rate mode : Variable
    Frame rate : 23.976 fps
    Minimum frame rate : 23.810 fps
    Maximum frame rate : 24.246 fps
    Color space : YUV
    Chroma subsampling : 4:2:0
    Bit depth : 8 bits
    Scan type : Progressive
    Bits/(Pixel*Frame) : 0.217
    Stream size : 5.78 GiB (86%)
    Source stream size : 5.78 GiB (86%)
    Title : Main Program
    Writing library : x264 core 142 r2479 dd79a61
    Encoding settings : cabac=1 / ref=4 / deblock=1:-2:-2 / analyse=0x3:0x133 / me=umh / subme=10 / psy=1 / psy_rd=1.00:0.15 / mixed_ref=1 / me_range=32 / chroma_me=1 / trellis=2 / 8x8dct=1 / cqm=0 / deadzone=21,11 / fast_pskip=0 / chroma_qp_offset=-3 / threads=36 / lookahead_threads=6 / sliced_threads=0 / nr=0 / decimate=0 / interlaced=0 / bluray_compat=0 / constrained_intra=0 / bframes=16 / b_pyramid=2 / b_adapt=2 / b_bias=0 / direct=3 / weightb=1 / open_gop=0 / weightp=2 / keyint=240 / keyint_min=24 / scenecut=40 / intra_refresh=0 / rc_lookahead=60 / rc=2pass / mbtree=1 / bitrate=8000 / ratetol=1.0 / qcomp=0.70 / qpmin=0 / qpmax=69 / qpstep=4 / cplxblur=20.0 / qblur=0.5 / vbv_maxrate=25000 / vbv_bufsize=25000 / nal_hrd=none / filler=0 / ip_ratio=1.40 / aq=1:1.00
    Encoded date : UTC 2016-06-28 16:24:22
    Tagged date : UTC 2016-06-28 16:24:32
    Color range : Limited
    Color primaries : BT.709
    Transfer characteristics : BT.709
    Matrix coefficients : BT.709
    Video #2
    ID : 10
    Format : JPEG
    Codec ID : jpeg
    Duration : 1h 43mn
    Bit rate mode : Variable
    Bit rate : 693 bps
    Width : 640 pixels
    Height : 266 pixels
    Display aspect ratio : 2.40:1
    Frame rate mode : Variable
    Frame rate : 0.003 fps
    Minimum frame rate : 0.002 fps
    Maximum frame rate : 0.005 fps
    Color space : YUV
    Chroma subsampling : 4:2:0
    Bit depth : 8 bits
    Compression mode : Lossy
    Bits/(Pixel*Frame) : 1.357
    Stream size : 451 KiB (0%)
    Title : Chapter Images
    Language : English
    Encoded date : UTC 2016-06-28 16:25:19
    Tagged date : UTC 2016-06-28 16:25:19
    Audio #1
    ID : 2
    Format : AAC
    Format/Info : Advanced Audio Codec
    Format profile : LC
    Codec ID : 40
    Duration : 1h 43mn
    Bit rate mode : Variable
    Bit rate : 156 Kbps
    Maximum bit rate : 249 Kbps
    Channel(s) : 2 channels
    Channel positions : Front: L R
    Sampling rate : 48.0 KHz
    Compression mode : Lossy
    Stream size : 116 MiB (2%)
    Title : Russian Stereo
    Language : Russian
    Encoded date : UTC 2016-06-28 16:24:22
    Tagged date : UTC 2016-06-28 16:24:35
    Audio #2
    ID : 3
    Format : AAC
    Format/Info : Advanced Audio Codec
    Format profile : LC
    Codec ID : 40
    Duration : 1h 43mn
    Bit rate mode : Variable
    Bit rate : 157 Kbps
    Maximum bit rate : 255 Kbps
    Channel(s) : 2 channels
    Channel positions : Front: L R
    Sampling rate : 48.0 KHz
    Compression mode : Lossy
    Stream size : 117 MiB (2%)
    Title : English Stereo
    Language : English
    Encoded date : UTC 2016-06-28 16:24:22
    Tagged date : UTC 2016-06-28 16:24:35
    Audio #3
    ID : 4
    Format : AC-3
    Format/Info : Audio Coding 3
    Mode extension : CM (complete main)
    Format settings, Endianness : Big
    Codec ID : ac-3
    Duration : 1h 43mn
    Bit rate mode : Constant
    Bit rate : 384 Kbps
    Channel(s) : 6 channels
    Channel positions : Front: L C R, Side: L R, LFE
    Sampling rate : 48.0 KHz
    Bit depth : 16 bits
    Compression mode : Lossy
    Stream size : 284 MiB (4%)
    Title : Russian DD 5.1
    Language : Russian
    Encoded date : UTC 2016-06-28 16:24:22
    Tagged date : UTC 2016-06-28 16:25:12
    Audio #4
    ID : 5
    Format : AC-3
    Format/Info : Audio Coding 3
    Mode extension : CM (complete main)
    Format settings, Endianness : Big
    Codec ID : ac-3
    Duration : 1h 43mn
    Bit rate mode : Constant
    Bit rate : 640 Kbps
    Channel(s) : 6 channels
    Channel positions : Front: L C R, Side: L R, LFE
    Sampling rate : 48.0 KHz
    Bit depth : 16 bits
    Compression mode : Lossy
    Stream size : 474 MiB (7%)
    Title : English DD 5.1
    Language : English
    Encoded date : UTC 2016-06-28 16:24:22
    Tagged date : UTC 2016-06-28 16:25:12
    Text #1
    ID : 6
    Format : Timed Text
    Muxing mode : sbtl
    Codec ID : tx3g
    Duration : 1h 37mn
    Bit rate mode : Variable
    Bit rate : 55 bps
    Stream size : 39.5 KiB (0%)
    Title : Russian Full
    Language : Russian
    Encoded date : UTC 2016-06-28 16:24:22
    Tagged date : UTC 2016-06-28 16:25:12
    Text #2
    ID : 7
    Format : Timed Text
    Muxing mode : sbtl
    Codec ID : tx3g
    Duration : 1h 37mn
    Bit rate mode : Variable
    Bit rate : 40 bps
    Stream size : 28.4 KiB (0%)
    Title : English Full
    Language : English
    Encoded date : UTC 2016-06-28 16:24:22
    Tagged date : UTC 2016-06-28 16:25:12
    Text #3
    ID : 8
    Format : Timed Text
    Muxing mode : sbtl
    Codec ID : tx3g
    Duration : 1h 37mn
    Bit rate mode : Variable
    Bit rate : 46 bps
    Stream size : 33.0 KiB (0%)
    Title : English SDH
    Language : English
    Encoded date : UTC 2016-06-28 16:24:22
    Tagged date : UTC 2016-06-28 16:25:12
    Menu #1
    00:00:00.000 : Chapter 1
    00:05:55.605 : Chapter 2
    00:14:52.517 : Chapter 3
    00:19:18.157 : Chapter 4
    00:24:11.992 : Chapter 5
    00:32:21.940 : Chapter 6
    00:42:59.243 : Chapter 7
    00:47:47.740 : Chapter 8
    00:53:37.089 : Chapter 9
    00:57:00.626 : Chapter 10
    01:03:10.745 : Chapter 11
    01:11:20.193 : Chapter 12
    01:15:49.420 : Chapter 13
    01:24:21.265 : Chapter 14
    01:28:19.085 : Chapter 15
    01:37:31.512 : Chapter 16
    Menu #2
    ID : 9
    Codec ID : text
    Duration : 1h 43mn
    Language : English
    Encoded date : UTC 2016-06-28 16:25:12
    Tagged date : UTC 2016-06-28 16:25:12
    00:00:00.000 : Chapter 1
    00:05:55.605 : Chapter 2
    00:14:52.517 : Chapter 3
    00:19:18.157 : Chapter 4
    00:24:11.992 : Chapter 5
    00:32:21.940 : Chapter 6
    00:42:59.243 : Chapter 7
    00:47:47.740 : Chapter 8
    00:53:37.089 : Chapter 9
    00:57:00.626 : Chapter 10
    01:03:10.745 : Chapter 11
    01:11:20.193 : Chapter 12
    01:15:49.420 : Chapter 13
    01:24:21.265 : Chapter 14
    01:28:19.085 : Chapter 15
    01:37:31.512 : Chapter 16
    Bit rate mode : VBR

    x264 лог

    x264 [info]: frame I:877   Avg QP:16.29  size:162237
    x264 [info]: frame P:31018 Avg QP:18.94  size: 60702
    x264 [info]: frame B:117111 Avg QP:19.93  size: 35718
    x264 [info]: consecutive B-frames:  2.5%  3.0%  7.9%  4.5% 13.1% 59.9%  4.1%  0.6%  0.7%  1.3%  0.6%  0.2%  0.4%  0.3%  0.2%  0.1%  0.5%
    x264 [info]: mb I  I16..4: 14.5% 75.3% 10.2%
    x264 [info]: mb P  I16..4:  3.0% 19.0%  0.6%  P16..4: 44.1% 15.2%  9.4%  0.1%  0.0%    skip: 8.6%
    x264 [info]: mb B  I16..4:  0.2%  3.7%  0.0%  B16..8: 39.3%  9.7%  2.1%  direct:10.2%  skip:34.9%  L0:45.0% L1:45.5% BI: 9.5%
    x264 [info]: 8x8 transform intra:87.2% inter:54.0%
    x264 [info]: direct mvs  spatial:98.5% temporal:1.5%
    x264 [info]: coded y,uvDC,uvAC intra: 89.4% 75.3% 49.6% inter: 35.8% 32.1% 11.1%
    x264 [info]: i16 v,h,dc,p: 40% 12% 15% 32%
    x264 [info]: i8 v,h,dc,ddl,ddr,vr,hd,vl,hu:  8%  6% 15% 11% 13% 12% 11% 12% 13%
    x264 [info]: i4 v,h,dc,ddl,ddr,vr,hd,vl,hu:  9%  7%  6% 10% 15% 14% 14% 12% 14%
    x264 [info]: i8c dc,h,v,p: 51% 21% 17% 12%
    x264 [info]: Weighted P-Frames: Y:3.0% UV:1.5%
    x264 [info]: ref P L0: 47.3%  7.5% 30.2% 13.5%  1.5%  0.1%
    x264 [info]: ref B L0: 78.6% 17.4%  3.9%
    x264 [info]: ref B L1: 87.7% 12.3%
    x264 [info]: kb/s:7991.41

    Скриншоты

    -

    Релиз подготовлен для просмотра на Apple TV, iPad, iPhone, iPod Touch.
    Для просмотра данного релиза на компьютере с ОС Windows рекомендуется использовать VLC media player
    Скачать .torrent

    Скачать торрент-файл бесплатно и на максимальной скорости!

    Как скачивать? · Что такое торрент? · Рейтинг и ограничения

    !ВНИМАНИЕ!
    Сайт не распространяет и не хранит электронные версии произведений, а занимается лишь лишь предоставлением доступа к создаваемому пользователями каталогу ссылок на торрент-файлы, которые содержат только списки хеш-сумм, убедительная просьба с жалобами обращаться напрямую к пользователю. Файлы для обмена на трекере предоставлены пользователями сайта, и администрация не несёт ответственности за их содержание. Просьба не заливать файлы, защищенные авторскими правами, а также файлы нелегального содержания!


    _________________
    [Профиль] [ЛС]
    Показать сообщения:    
    Ответить на тему

    Текущее время: Сегодня, в 16:43

    Часовой пояс: GMT + 2



    Вы не можете начинать темы
    Вы не можете отвечать на сообщения
    Вы не можете редактировать свои сообщения
    Вы не можете удалять свои сообщения
    Вы не можете голосовать в опросах
    Вы не можете прикреплять файлы к сообщениям
    Вы не можете скачивать файлы