Register  ·  Log in
Forgot password?

  • Коммуналка / Серии: 1-4 из 4 (Анарио Мамедов) [2015, драма, WEBRip (1080p)]

    Reply to topic
    Author Message


    Post 28-Jun-2016 21:56



    Коммуналка--Год выпуска: 2015
    Производство: "ТВЦ, АВК продакшн"
    Жанр: драма
    Продолжительность: 00:45:00
    Субтитры: нет-Режиссёр: Анарио Мамедов-В ролях:
    В ролях:
    Екатерина Волкова (I), Дмитрий Миллер, Юлия Сулес, Олег Акулич, Александр Рапопорт, Сесиль Плеже, Юрий Горин,
    Ирина Чипиженко, Евгения Чиркова, Соня Грачева, Ирина Гришина, Александр Курицын, Никита Манилов, Елена Папанова, Евгения Ахременко-Описание:
    Жизнь Анны Сабуровой, сорокалетней привлекательной женщины, со стороны может показаться идеальной: живет в роскошном загородном доме, состоятельный муж-профессор не чает в ней души, любимый сын учится в престижном московском ВУЗе. Всё рушится в один момент, когда муж Анны умирает у неё на глазах.-Все раздачи сериала-Возраст: 16+-Качество: WEBRip (1080p)
    Формат: MKV
    Видео кодек: AVC
    Аудио кодек: AC3

    Видео: AVC, 1920 х 1080 (16:9), 25,000 кадр/сек, 2 672 Кбит/сек, 0.052 bit/pixel
    Аудио: AC3, 48000 Hz, 192 Kbps, 2 канала


    Unique ID : 147196853830575547302343076137232995828 (0x6EBD1535BC4DF5981959863C118795F4)
    Complete name : D:\Раздачи\Коммуналка (1-4 серии из 4) WEB-DL (1080p).Komunalka.2015.WEB-DL.1080.Files-x.mkv
    Format : Matroska
    Format version : Version 4 / Version 2
    File size : 983 MiB
    Duration : 47mn 1s
    Overall bit rate : 2 922 Kbps
    Writing application : Lavf56.25.101
    Writing library : Lavf56.25.101 / Lavf56.25.101
    ID : 1
    Format : AVC
    Format/Info : Advanced Video Codec
    Format profile : High@L4
    Format settings, CABAC : Yes
    Format settings, ReFrames : 2 frames
    Codec ID : V_MPEG4/ISO/AVC
    Duration : 47mn 1s
    Bit rate : 2 672 Kbps
    Width : 1 920 pixels
    Height : 1 080 pixels
    Display aspect ratio : 16:9
    Frame rate mode : Constant
    Frame rate : 25.000 fps
    Color space : YUV
    Chroma subsampling : 4:2:0
    Bit depth : 8 bits
    Scan type : Progressive
    Bits/(Pixel*Frame) : 0.052
    Stream size : 899 MiB (91%)
    Default : Yes
    Forced : No
    Color range : Limited
    Color primaries : BT.709
    Transfer characteristics : BT.709
    Matrix coefficients : BT.709
    ID : 2
    Format : AC-3
    Format/Info : Audio Coding 3
    Mode extension : CM (complete main)
    Format settings, Endianness : Big
    Codec ID : A_AC3
    Duration : 47mn 1s
    Bit rate mode : Constant
    Bit rate : 192 Kbps
    Channel(s) : 2 channels
    Channel positions : Front: L R
    Sampling rate : 44.1 KHz
    Frame rate : 28.711 fps (1536 spf)
    Compression mode : Lossy
    Delay relative to video : -40ms
    Stream size : 64.6 MiB (7%)
    Default : Yes
    Forced : No

    Скриншоты сериала

    Download .torrent

    Download free and at maximum speed!

    How to Download? · What is a torrent? · Ratings and Limitations

    The site does not extend and does not store electronic(digital) versions of products, and only gives access to a reference catalogue created by users on torrent-files which contain only lists of the hash-sums, the earnest entreaty, with complaints(abuse) to access directly to the user. Files for an exchange on tracker are given by users of a site, and the administration does not bear the responsibility for their maintenance. The request to not fill in the files protected by copyrights, and also files of the illegal maintenance!

    [Profile] [PM]
    Display posts from previous:    
    Reply to topic

    The time now is: Today 16:03

    All times are GMT + 3 Hours

    You cannot post new topics in this forum
    You cannot reply to topics in this forum
    You cannot edit your posts in this forum
    You cannot delete your posts in this forum
    You cannot vote in polls in this forum
    You cannot attach files in this forum
    You cannot download files in this forum