BitTorrentTracker PerecTracker.org
BitTorrentTracker PerecTracker.org
    
Регистрация  ·  Вход
 
 · 
Забыли пароль?

  • Коммуналка / Серии: 1-4 из 4 (Анарио Мамедов) [2015, драма, WEBRip (1080p)]

    Ответить на тему
     
    Автор Сообщение

    rechyn

    Создавать темы 28-Июн-2016 20:56

           

    [Цитировать]

    Коммуналка--Год выпуска: 2015
    Производство: "ТВЦ, АВК продакшн"
    Жанр: драма
    Продолжительность: 00:45:00
    Субтитры: нет-Режиссёр: Анарио Мамедов-В ролях:
    В ролях:
    Екатерина Волкова (I), Дмитрий Миллер, Юлия Сулес, Олег Акулич, Александр Рапопорт, Сесиль Плеже, Юрий Горин,
    Ирина Чипиженко, Евгения Чиркова, Соня Грачева, Ирина Гришина, Александр Курицын, Никита Манилов, Елена Папанова, Евгения Ахременко-Описание:
    Жизнь Анны Сабуровой, сорокалетней привлекательной женщины, со стороны может показаться идеальной: живет в роскошном загородном доме, состоятельный муж-профессор не чает в ней души, любимый сын учится в престижном московском ВУЗе. Всё рушится в один момент, когда муж Анны умирает у неё на глазах.-Все раздачи сериала-Возраст: 16+-Качество: WEBRip (1080p)
    Формат: MKV
    Видео кодек: AVC
    Аудио кодек: AC3

    Видео: AVC, 1920 х 1080 (16:9), 25,000 кадр/сек, 2 672 Кбит/сек, 0.052 bit/pixel
    Аудио: AC3, 48000 Hz, 192 Kbps, 2 канала
    -

    MediaInfo

    General
    Unique ID : 147196853830575547302343076137232995828 (0x6EBD1535BC4DF5981959863C118795F4)
    Complete name : D:\Раздачи\Коммуналка (1-4 серии из 4) WEB-DL (1080p).Komunalka.2015.WEB-DL.1080.Files-x.mkv
    Format : Matroska
    Format version : Version 4 / Version 2
    File size : 983 MiB
    Duration : 47mn 1s
    Overall bit rate : 2 922 Kbps
    Writing application : Lavf56.25.101
    Writing library : Lavf56.25.101 / Lavf56.25.101
    Video
    ID : 1
    Format : AVC
    Format/Info : Advanced Video Codec
    Format profile : High@L4
    Format settings, CABAC : Yes
    Format settings, ReFrames : 2 frames
    Codec ID : V_MPEG4/ISO/AVC
    Duration : 47mn 1s
    Bit rate : 2 672 Kbps
    Width : 1 920 pixels
    Height : 1 080 pixels
    Display aspect ratio : 16:9
    Frame rate mode : Constant
    Frame rate : 25.000 fps
    Color space : YUV
    Chroma subsampling : 4:2:0
    Bit depth : 8 bits
    Scan type : Progressive
    Bits/(Pixel*Frame) : 0.052
    Stream size : 899 MiB (91%)
    Default : Yes
    Forced : No
    Color range : Limited
    Color primaries : BT.709
    Transfer characteristics : BT.709
    Matrix coefficients : BT.709
    Audio
    ID : 2
    Format : AC-3
    Format/Info : Audio Coding 3
    Mode extension : CM (complete main)
    Format settings, Endianness : Big
    Codec ID : A_AC3
    Duration : 47mn 1s
    Bit rate mode : Constant
    Bit rate : 192 Kbps
    Channel(s) : 2 channels
    Channel positions : Front: L R
    Sampling rate : 44.1 KHz
    Frame rate : 28.711 fps (1536 spf)
    Compression mode : Lossy
    Delay relative to video : -40ms
    Stream size : 64.6 MiB (7%)
    Default : Yes
    Forced : No
    -

    Скриншоты сериала


    -
    Скачать .torrent

    Скачать торрент-файл бесплатно и на максимальной скорости!

    Как скачивать? · Что такое торрент? · Рейтинг и ограничения

    !ВНИМАНИЕ!
    Сайт не распространяет и не хранит электронные версии произведений, а занимается лишь лишь предоставлением доступа к создаваемому пользователями каталогу ссылок на торрент-файлы, которые содержат только списки хеш-сумм, убедительная просьба с жалобами обращаться напрямую к пользователю. Файлы для обмена на трекере предоставлены пользователями сайта, и администрация не несёт ответственности за их содержание. Просьба не заливать файлы, защищенные авторскими правами, а также файлы нелегального содержания!


    _________________
    [Профиль] [ЛС]
    Показать сообщения:    
    Ответить на тему

    Текущее время: Сегодня, в 05:20

    Часовой пояс: GMT + 2



    Вы не можете начинать темы
    Вы не можете отвечать на сообщения
    Вы не можете редактировать свои сообщения
    Вы не можете удалять свои сообщения
    Вы не можете голосовать в опросах
    Вы не можете прикреплять файлы к сообщениям
    Вы не можете скачивать файлы