BitTorrentTracker PerecTracker.org
BitTorrentTracker PerecTracker.org
    
Регистрация  ·  Вход
 
 · 
Забыли пароль?

  • Вдвоём на льдине (Валерий Игнатьев) [2015, драма, мелодрама, WEB-DLRip]

    Ответить на тему
     
    Автор Сообщение

    Flirldrerve

    Создавать темы 28-Июн-2016 09:00

           

    [Цитировать]

    Вдвоём на льдине
    Жанр: драма, мелодрама
    Год выпуска: 2015
    Продолжительность: 01:23:48
    Режиссёр: Валерий Игнатьев
    В ролях: Владимир Дыховичный
    Елизавета Саксина
    Валерий Баринов
    Марианна Шульц
    Евгений Редько
    Александр Бобров
    Полина Козловская
    Евгения Каверау
    Иван Шмаков
    Диана Енакаева
    Андрей Бронников
    Описание: Юный пианист Роман Осин попадает в онкологическую клинику с диагнозом Саркома Юинга, где встречает девочку Юлю, талантливую художницу. Между ними возникает симпатия, все свободное время они стараются проводить вместе. Забыв о своих диагнозах, они живут как обычные молодые люди.
    Но однажды болезнь напомнила о себе. Рома понимает, что состояние Юли ухудшается и медицина здесь бессильна. Веря в силу музыки, Рома решает исполнить Второй концерт Рахманинова в клинике, надеясь на то, что это может помочь Юле.
    Это история о первой любви, о самопожертвовании ради любимого человека, о неумирающей надежде…

    Качество видео: WEB-DLRip
    Формат видео: AVI
    Видео: XviD 73 MPEG-4, 720x384 (1.85:1) 25.000 fps, ~2100 kbps avg, 0.304 bit/pixel
    Аудио: AC-3 Dolby Digital, CBR 384 kbps 6 ch (Front: L C R, Side: L R, LFE) 48.0 KHz

    MediaInfo

    ОбщееПолное имя : C:\Вдвоем на льдине(146)\Вдвоём_на_льдине_2015_WEB-DLRip_[perectracker.org].aviФормат : AVIФормат/Информация : Audio Video InterleaveРазмер файла : 1,46 ГбайтПродолжительность : 1 ч. 23 м.Общий поток : 2492 Кбит/сек
    ВидеоИдентификатор : 0Формат : MPEG-4 VisualПрофиль формата : Advanced Simple@L5Параметр BVOP формата : 1Параметр QPel формата : НетПараметр GMC формата : Без точки переходаПараметр матрицы формата : ВыборочнаяИдентификатор кодека : XVIDИдентификатор кодека/Подсказка : XviDПродолжительность : 1 ч. 23 м.Битрейт : 2100 Кбит/секШирина : 720 пикселейВысота : 384 пикселяСоотношение сторон : 1,85:1Частота кадров : 25,000 кадров/секЦветовое пространство : YUVСубдискретизация насыщенности : 4:2:0Битовая глубина : 8 битТип развёртки : ПрогрессивнаяМетод сжатия : С потерямиБит/(Пиксели*Кадры) : 0.304Размер потока : 1,23 Гбайт (84%)Библиотека кодирования : XviD 73
    АудиоИдентификатор : 1Формат : AC-3Формат/Информация : Audio Coding 3Расширение режима : CM (complete main)Параметр Endianness формата : BigИдентификатор кодека : 2000Продолжительность : 1 ч. 23 м.Вид битрейта : ПостоянныйБитрейт : 384 Кбит/секКаналы : 6 каналовРасположение каналов : Front: L C R, Side: L R, LFEЧастота : 48,0 КГцБитовая глубина : 16 битМетод сжатия : С потерямиРазмер потока : 230 Мбайт (15%)Выравнивание : Соединение по промежуткамПродолжительность промежутка : 64 мс. (1,60 видеокадра)Время предзагрузки промежутка : 192 мс.Заголовок : iTunes

    Скриншот c названием фильма

    Скриншоты

    Скачать .torrent

    Скачать торрент-файл бесплатно и на максимальной скорости!

    Как скачивать? · Что такое торрент? · Рейтинг и ограничения

    !ВНИМАНИЕ!
    Сайт не распространяет и не хранит электронные версии произведений, а занимается лишь лишь предоставлением доступа к создаваемому пользователями каталогу ссылок на торрент-файлы, которые содержат только списки хеш-сумм, убедительная просьба с жалобами обращаться напрямую к пользователю. Файлы для обмена на трекере предоставлены пользователями сайта, и администрация не несёт ответственности за их содержание. Просьба не заливать файлы, защищенные авторскими правами, а также файлы нелегального содержания!


    _________________
    [Профиль] [ЛС]
    Показать сообщения:    
    Ответить на тему

    Текущее время: Сегодня, в 06:34

    Часовой пояс: GMT + 2



    Вы не можете начинать темы
    Вы не можете отвечать на сообщения
    Вы не можете редактировать свои сообщения
    Вы не можете удалять свои сообщения
    Вы не можете голосовать в опросах
    Вы не можете прикреплять файлы к сообщениям
    Вы не можете скачивать файлы