BitTorrentTracker PerecTracker.org
BitTorrentTracker PerecTracker.org
    
Регистрация  ·  Вход
 
 · 
Забыли пароль?

  • Кловерфилд, 10 / 10 Cloverfield Lane (Дэн Трактенберг / Dan Trachtenberg) [2016, США, Ужасы, фантастика, триллер, драма, детектив, BDRip-AVC] Dub (iTunes) + Original (Eng) + Subs (Rus, Eng)

    Ответить на тему
     
    Автор Сообщение

    rechyn

    Создавать темы 28-Июн-2016 09:00

           

    [Цитировать]

    Кловерфилд, 10 / 10 Cloverfield Lane
    «Монстры бывают разные»
    -Год выхода: 2016
    Выпущено: США / Paramount Pictures, Bad Robot
    Жанр: ужасы, фантастика, триллер, драма, детектив
    Продолжительность: 01:43:59
    Перевод: Профессиональный (полное дублирование)
    Cубтитры: Русские, Английские (.srt*)
    Оригинальная аудиодорожка: Английская
    Навигация по главам: Есть (16 глав)-Режиссер:
    Дэн Трактенберг / Dan Trachtenberg-В ролях:
    Джон Гудман, Мэри Элизабет Уинстэд, Джон Галлахер мл., Дуглас М. Гриффин, Сюзанн Крайер, Брэдли Купер, Сумали Монтано, Фрэнк Моттек-О фильме:
    Проснувшись после автомобильной аварии, девушка оказывается в подвале человека, утверждающего, что он спас ей жизнь от химической атаки, которая сделала мир за пределами бункера непригодным для жизни.-Релиз групп
    | | IMDB | КиноПоиск | Сэмпл |-Качество: BDRip-AVC [10 Cloverfield Lane 2016 1080p Blu-ray AVC TrueHD Atmos 7.1]
    Формат: AVI
    Видео: 960x400 (2.40:1), 23.976 fps, x264 ~1625 kbps avg, 0.177 bit/pixel
    Аудио #1: 48 kHz, AC3 Dolby Digital, 3/2 (L,C,R,l,r) + LFE ch, ~384 kbps avg (RUS) - iTunes Russia
    Аудио #2: 48 kHz, AC3 Dolby Digital, 3/2 (L,C,R,l,r) + LFE ch, ~384 kbps avg (ENG) отдельно-

    Скриншоты

    -

    MediaInfo

    Общее
    Полное имя                               : D:\Фильмы\Cloverfield_10_2016_BDRip_AVC_iT_by_Dalemake.mkv
    Формат                                   : Matroska
    Версия формата                           : Version 4 / Version 2
    Размер файла                             : 1,45 Гбайт
    Продолжительность                        : 1 ч. 43 м.
    Общий поток                              : 2009 Кбит/сек
    Название фильма                          : [10 Cloverfield Lane_2016_All Films Rutracker.org_by Dalemake]
    Дата кодирования                         : UTC 2016-06-27 20:28:27
    Программа кодирования                    : mkvmerge v7.8.0 ('River Man') 32bit built on Apr  3 2015 12:11:22
    Библиотека кодирования                   : libebml v1.3.1 + libmatroska v1.4.2
    DURATION                                 : 01:32:42.912000000
    NUMBER_OF_FRAMES                         : 843
    NUMBER_OF_BYTES                          : 25367
    _STATISTICS_WRITING_APP                  : mkvmerge v7.8.0 ('River Man') 32bit built on Apr  3 2015 12:11:22
    _STATISTICS_WRITING_DATE_UTC             : 2016-06-27 20:28:27
    _STATISTICS_TAGS                         : BPS DURATION NUMBER_OF_FRAMES NUMBER_OF_BYTES
    Видео
    Идентификатор                            : 1
    Формат                                   : AVC
    Формат/Информация                        : Advanced Video Codec
    Профиль формата                          : High@L4.1
    Параметр CABAC формата                   : Да
    Параметр ReFrames формата                : 13 кадров
    Идентификатор кодека                     : V_MPEG4/ISO/AVC
    Продолжительность                        : 1 ч. 43 м.
    Битрейт                                  : 1625 Кбит/сек
    Ширина                                   : 960 пикселей
    Высота                                   : 400 пикселей
    Соотношение сторон                       : 2,40:1
    Частота кадров                           : 23,976 кадра/сек
    Цветовое пространство                    : YUV
    Субдискретизация насыщенности            : 4:2:0
    Битовая глубина                          : 8 бит
    Тип развёртки                            : Прогрессивная
    Бит/(Пиксели*Кадры)                      : 0.177
    Размер потока                            : 1,15 Гбайт (79%)
    Заголовок                                : [10 Cloverfield Lane_2016_All Films Rutracker.org_by Dalemake]
    Библиотека кодирования                   : x264 core 146 r2538 121396c
    Настройки программы                      : cabac=1 / ref=13 / deblock=1:-2:-1 / analyse=0x3:0x133 / me=umh / subme=11 / psy=1 / psy_rd=1.00:0.00 / mixed_ref=1 / me_range=32 / chroma_me=1 / trellis=2 / 8x8dct=1 / cqm=0 / deadzone=21,11 / fast_pskip=1 / chroma_qp_offset=-4 / threads=6 / lookahead_threads=1 / sliced_threads=0 / nr=0 / decimate=0 / interlaced=0 / bluray_compat=0 / constrained_intra=0 / bframes=13 / b_pyramid=2 / b_adapt=2 / b_bias=0 / direct=3 / weightb=1 / open_gop=0 / weightp=2 / keyint=250 / keyint_min=23 / scenecut=40 / intra_refresh=0 / rc_lookahead=60 / rc=2pass / mbtree=0 / bitrate=1625 / ratetol=1.0 / qcomp=0.60 / qpmin=0 / qpmax=69 / qpstep=4 / cplxblur=20.0 / qblur=0.5 / vbv_maxrate=50000 / vbv_bufsize=62500 / nal_hrd=none / filler=0 / ip_ratio=1.35 / pb_ratio=1.30 / aq=1:1.00
    Default                                  : Да
    Forced                                   : Нет
    Аудио
    Идентификатор                            : 2
    Формат                                   : AC-3
    Формат/Информация                        : Audio Coding 3
    Расширение режима                        : CM (complete main)
    Параметр Endianness формата              : Big
    Идентификатор кодека                     : A_AC3
    Продолжительность                        : 1 ч. 43 м.
    Вид битрейта                             : Постоянный
    Битрейт                                  : 384 Кбит/сек
    Каналы                                   : 6 каналов
    Расположение каналов                     : Front: L C R, Side: L R, LFE
    Частота                                  : 48,0 КГц
    Битовая глубина                          : 16 бит
    Метод сжатия                             : С потерями
    Размер потока                            : 284 Мбайт (19%)
    Заголовок                                : Dub - iTunes Russia
    Язык                                     : Russian
    Default                                  : Да
    Forced                                   : Нет
    Текст #1
    Идентификатор                            : 3
    Формат                                   : UTF-8
    Идентификатор кодека                     : S_TEXT/UTF8
    Идентификатор кодека/Информация          : UTF-8 Plain Text
    Заголовок                                : Full
    Язык                                     : Russian
    Default                                  : Нет
    Forced                                   : Нет
    Текст #2
    Идентификатор                            : 4
    Формат                                   : UTF-8
    Идентификатор кодека                     : S_TEXT/UTF8
    Идентификатор кодека/Информация          : UTF-8 Plain Text
    Заголовок                                : Full
    Язык                                     : English
    Default                                  : Нет
    Forced                                   : Нет
    Текст #3
    Идентификатор                            : 5
    Формат                                   : UTF-8
    Идентификатор кодека                     : S_TEXT/UTF8
    Идентификатор кодека/Информация          : UTF-8 Plain Text
    Заголовок                                : Full - SDH
    Язык                                     : English
    Default                                  : Нет
    Forced                                   : Нет
    Меню
    00:00:00.000                             : en:Chapter 01
    00:05:55.605                             : en:Chapter 02
    00:14:52.517                             : en:Chapter 03
    00:19:18.157                             : en:Chapter 04
    00:24:11.992                             : en:Chapter 05
    00:32:21.940                             : en:Chapter 06
    00:42:59.243                             : en:Chapter 07
    00:47:47.740                             : en:Chapter 08
    00:53:37.089                             : en:Chapter 09
    00:57:00.626                             : en:Chapter 10
    01:03:10.745                             : en:Chapter 11
    01:11:20.193                             : en:Chapter 12
    01:15:49.420                             : en:Chapter 13
    01:24:21.265                             : en:Chapter 14
    01:28:19.085                             : en:Chapter 15
    01:37:31.512                             : en:Chapter 16
    -
    Скачать .torrent

    Скачать торрент-файл бесплатно и на максимальной скорости!

    Как скачивать? · Что такое торрент? · Рейтинг и ограничения

    !ВНИМАНИЕ!
    Сайт не распространяет и не хранит электронные версии произведений, а занимается лишь лишь предоставлением доступа к создаваемому пользователями каталогу ссылок на торрент-файлы, которые содержат только списки хеш-сумм, убедительная просьба с жалобами обращаться напрямую к пользователю. Файлы для обмена на трекере предоставлены пользователями сайта, и администрация не несёт ответственности за их содержание. Просьба не заливать файлы, защищенные авторскими правами, а также файлы нелегального содержания!


    _________________
    [Профиль] [ЛС]
    Показать сообщения:    
    Ответить на тему

    Текущее время: Сегодня, в 06:59

    Часовой пояс: GMT + 2



    Вы не можете начинать темы
    Вы не можете отвечать на сообщения
    Вы не можете редактировать свои сообщения
    Вы не можете удалять свои сообщения
    Вы не можете голосовать в опросах
    Вы не можете прикреплять файлы к сообщениям
    Вы не можете скачивать файлы