BitTorrentTracker PerecTracker.org
BitTorrentTracker PerecTracker.org
    
Регистрация  ·  Вход
 
 · 
Забыли пароль?

  • Приглашение / The Invitation (Карин Кусама / Karyn Kusama) [2015, США, триллер, HDRip] Sub (Rus, Eng)

    Ответить на тему
     
    Автор Сообщение

    Light

    Создавать темы 28-Июн-2016 09:00

           

    [Цитировать]

    Приглашение / The Invitation
    Страна: США
    Жанр: триллер
    Год выпуска: 2015
    Продолжительность: 01:40:32
    Перевод: Субтитры (Genco Team: Александр Бурлыко (перевод), Павел Жуков (редактура))
    Cубтитры: русские, английские
    Режиссер: Карин Кусама / Karyn Kusama
    В ролях: Логан Маршалл-Грин, Эмаяци Коринеальди, Эйден Лавкамп, Мишель Крусик, Майк Дойл, Хорди Виласусо, Джей Ларсон, Марайа Делфино, Тэмми Бланчард, Михил Хаушман
    Описание: Уилл (Логан Маршалл-Грин) получает приглашение на званый ужин в доме своей бывшей жены Иден (Тэмми Бланчард), которую он не видел с тех пор, как два года назад в их семье произошла трагедия и брак распался. Несмотря на тяжёлые воспоминания, он соглашается, но вместо расслабленной встречи старых друзей его ждёт вечер напряжения и паранойи. С первых минут Уилла не покидает чувство, что что-то здесь не так: все двери заперты, на окнах решётки, Иден и её новый партнёр Дэйвид (Михиль Хёйсман) ведут себя подозрительно дружелюбно и внезапно появлется пара новых друзей Иден, которые также вызывают немалый дискомфорт. Правда ли здесь происходит что-то неладное, или Уилл просто не может оправиться от собственных душевных травм и видит врагов во всех вокруг?
    «Приглашение» – это отличный образец классического камерного триллера в духе Альфреда Хичкока и Романа Полански, где уверенным нельзя быть ни в чём и за масками доброты и невинности могут скрываться демоны. С первых кадров режиссёр Кэрин Кусама создаёт напряжение, непрерывно нарастающее до самого финального кадра, который остаётся в памяти надолго. Как и лучшие примеры своего жанра, «Приглашение» – это история о том, что самые страшные чудовища живут внутри нас самих, и чем тише омут, тем больше в нём чертей.
    Сэмпл: http://multi-up.com/1107164
    Качество / формат: HDRip, AVI
    Видео: XviD, 1600 Kbps, 720x304, 23.976 fps, 8 bits
    Аудио: AC3, 448 Kbps, 48 KHz, 6 channels
    Формат субтитров: softsub (SRT)

    Пример субтитров

    137
    00:10:32,290 --> 00:10:33,920
    Откуда вы друг друга знаете?
    138
    00:10:36,860 --> 00:10:39,260
    У нас были общие друзья,
    наверное.
    139
    00:10:39,260 --> 00:10:40,730
    Мы познакомились в Мексике.
    140
    00:10:40,730 --> 00:10:44,830
    Сэйди живёт с нами, помогает.
    141
    00:10:44,840 --> 00:10:46,270
    Да.
    142
    00:10:46,270 --> 00:10:49,170
    Это весело. Мы веселимся.
    143
    00:10:50,870 --> 00:10:53,780
    Надеюсь, вы не против, что я без
    приглашения. У вас тут круто.
    144
    00:10:56,880 --> 00:10:58,650
    Они мне столько о вас
    рассказывали.
    145
    00:11:05,550 --> 00:11:08,190
    Мы сбили койота по дороге.
    146
    00:11:08,190 --> 00:11:09,190
    – Что?
    – Что?
    147
    00:11:09,190 --> 00:11:10,690
    Он появился из ниоткуда.
    148
    00:11:10,690 --> 00:11:12,730
    У нас не было выхода.
    149
    00:11:12,730 --> 00:11:15,030
    Он выглядел кошмарно.
    150
    00:11:15,030 --> 00:11:16,700
    Пришлось его убить.
    151
    00:11:16,700 --> 00:11:20,770
    Что? Почему вы нам об этом
    сразу не рассказали?
    152
    00:11:20,770 --> 00:11:25,570
    А чем, собственно, ты его убил?
    153
    00:11:25,580 --> 00:11:26,880
    Монтировкой для колёс.
    154
    00:11:27,880 --> 00:11:29,310
    О боже. Что?
    155
    00:11:29,310 --> 00:11:31,880
    Я не знаю, как ты это сделал, чел.
    Это жёстко.
    156
    00:11:31,880 --> 00:11:34,020
    Нет, это хорошо.
    157
    00:11:34,020 --> 00:11:35,520
    Ты поступил милосердно.

    MediaInfo

    General
    Complete name : E:\movies\[torrents]\the invitation (2015)\the invitation (2015) [bdrip, eng].avi
    Format : AVI
    Format/Info : Audio Video Interleave
    File size : 1.37 GiB
    Duration : 1h 40mn
    Overall bit rate : 1 958 Kbps
    Writing library : VirtualDub build 32593/release
    Video
    ID : 0
    Format : MPEG-4 Visual
    Format profile : Advanced Simple@L5
    Format settings, BVOP : 2
    Format settings, QPel : No
    Format settings, GMC : No warppoints
    Format settings, Matrix : Default (H.263)
    Muxing mode : Packed bitstream
    Codec ID : XVID
    Codec ID/Hint : XviD
    Duration : 1h 40mn
    Bit rate : 1 501 Kbps
    Width : 720 pixels
    Height : 304 pixels
    Display aspect ratio : 2.35:1
    Frame rate : 23.976 fps
    Color space : YUV
    Chroma subsampling : 4:2:0
    Bit depth : 8 bits
    Scan type : Progressive
    Compression mode : Lossy
    Bits/(Pixel*Frame) : 0.286
    Stream size : 1.05 GiB (77%)
    Writing library : XviD 66
    Audio
    ID : 1
    Format : AC-3
    Format/Info : Audio Coding 3
    Mode extension : CM (complete main)
    Format settings, Endianness : Big
    Codec ID : 2000
    Duration : 1h 40mn
    Bit rate mode : Constant
    Bit rate : 448 Kbps
    Channel(s) : 6 channels
    Channel positions : Front: L C R, Side: L R, LFE
    Sampling rate : 48.0 KHz
    Bit depth : 16 bits
    Compression mode : Lossy
    Stream size : 322 MiB (23%)
    Alignment : Aligned on interleaves
    Interleave, duration : 42 ms (1.00 video frame)
    Interleave, preload duration : 512 ms

    Скриншот c названием фильма

    Скриншоты

    Скачать .torrent

    Скачать торрент-файл бесплатно и на максимальной скорости!

    Как скачивать? · Что такое торрент? · Рейтинг и ограничения

    !ВНИМАНИЕ!
    Сайт не распространяет и не хранит электронные версии произведений, а занимается лишь лишь предоставлением доступа к создаваемому пользователями каталогу ссылок на торрент-файлы, которые содержат только списки хеш-сумм, убедительная просьба с жалобами обращаться напрямую к пользователю. Файлы для обмена на трекере предоставлены пользователями сайта, и администрация не несёт ответственности за их содержание. Просьба не заливать файлы, защищенные авторскими правами, а также файлы нелегального содержания!


    _________________
    [Профиль] [ЛС]
    Показать сообщения:    
    Ответить на тему

    Текущее время: Сегодня, в 22:27

    Часовой пояс: GMT + 2



    Вы не можете начинать темы
    Вы не можете отвечать на сообщения
    Вы не можете редактировать свои сообщения
    Вы не можете удалять свои сообщения
    Вы не можете голосовать в опросах
    Вы не можете прикреплять файлы к сообщениям
    Вы не можете скачивать файлы