BitTorrentTracker PerecTracker.org
BitTorrentTracker PerecTracker.org
    
Регистрация  ·  Вход
 
 · 
Забыли пароль?

  • Идеальные незнакомцы / Perfetti sconosciuti (Паоло Дженовезе / Paolo Genovese) [2016, Италия, драма, комедия, BDRip] VO (LetEatBee)

    Ответить на тему
     
    Автор Сообщение

    rechyn

    Создавать темы 27-Июн-2016 19:55

           

    [Цитировать]

    Идеальные незнакомцы / Perfetti sconosciuti
    Страна: Италия
    Жанр: драма, комедия
    Год выпуска: 2016
    Продолжительность: 01:36:03
    Перевод: Одноголосый закадровый LetEatBee по переводу Professor
    Cубтитры: нет
    Режиссер: Паоло Дженовезе / Paolo Genovese
    В ролях: Джузеппе Баттистон, Анна Фольетта, Марко Джаллини, Эдоардо Лео, Валерио Мастандреа, Альба Рорвахер, Касия Смутняк
    Описание: Семеро старых друзей собираются вместе на ужин. Когда они решают начать игру, заключающуюся в том, что им придется читать все поступающие смс вслух, а на звонки отвечать по громкой связи, они и представить себе не могут, к чему приведет такая откровенность...
    Впечатления: лично я бы убрал слово "комедия" из описания... Напоминает мощные театральные постановки, основанные на актерской игре и непрерывном, почти триллерном, развитии сюжета. От легкого традиционного итальянского ситкома это кино стоит далековато. И это хорошо.
    Сэмпл: https://yadi.sk/i/6IN2snbysnmJ9
    Качество видео: HDRip
    Формат видео: AVI
    Видео: XViD, 720х304, 2.35:1, 23.976 fps, 1391 kb/s
    Аудио: AC3, 48.0 KHz, 448 Kbps, 6 channels

    MediaInfo

    Format : AVI
    Format/Info : Audio Video Interleave
    File size : 1.24 GiB
    Duration : 1h 36mn
    Overall bit rate : 1 849 Kbps
    Writing application : VirtualDubMod 1.5.10.3 (build 2550/release)
    Writing library : VirtualDubMod build 2550/release
    Video
    ID : 0
    Format : MPEG-4 Visual
    Format profile : Advanced Simple@L5
    Format settings, BVOP : No
    Format settings, QPel : No
    Format settings, GMC : No warppoints
    Format settings, Matrix : Custom
    Codec ID : XVID
    Codec ID/Hint : XviD
    Duration : 1h 36mn
    Bit rate : 1 391 Kbps
    Width : 720 pixels
    Height : 304 pixels
    Display aspect ratio : 2.35:1
    Frame rate : 23.976 fps
    Color space : YUV
    Chroma subsampling : 4:2:0
    Bit depth : 8 bits
    Scan type : Progressive
    Compression mode : Lossy
    Bits/(Pixel*Frame) : 0.265
    Stream size : 956 MiB (75%)
    Writing library : XviD 64
    Audio
    ID : 1
    Format : AC-3
    Format/Info : Audio Coding 3
    Mode extension : CM (complete main)
    Format settings, Endianness : Big
    Codec ID : 2000
    Duration : 1h 36mn
    Bit rate mode : Constant
    Bit rate : 448 Kbps
    Channel(s) : 6 channels
    Channel positions : Front: L C R, Side: L R, LFE
    Sampling rate : 48.0 KHz
    Compression mode : Lossy
    Stream size : 308 MiB (24%)
    Alignment : Split accross interleaves
    Interleave, duration : 42 ms (1.00 video frame)
    Interleave, preload duratio : 500 ms

    Скриншот c названием фильма

    Скриншоты

    Скачать .torrent

    Скачать торрент-файл бесплатно и на максимальной скорости!

    Как скачивать? · Что такое торрент? · Рейтинг и ограничения

    !ВНИМАНИЕ!
    Сайт не распространяет и не хранит электронные версии произведений, а занимается лишь лишь предоставлением доступа к создаваемому пользователями каталогу ссылок на торрент-файлы, которые содержат только списки хеш-сумм, убедительная просьба с жалобами обращаться напрямую к пользователю. Файлы для обмена на трекере предоставлены пользователями сайта, и администрация не несёт ответственности за их содержание. Просьба не заливать файлы, защищенные авторскими правами, а также файлы нелегального содержания!


    _________________
    [Профиль] [ЛС]
    Показать сообщения:    
    Ответить на тему

    Текущее время: Сегодня, в 19:00

    Часовой пояс: GMT + 2



    Вы не можете начинать темы
    Вы не можете отвечать на сообщения
    Вы не можете редактировать свои сообщения
    Вы не можете удалять свои сообщения
    Вы не можете голосовать в опросах
    Вы не можете прикреплять файлы к сообщениям
    Вы не можете скачивать файлы