Register  ·  Log in
Forgot password?

  • Идеальные незнакомцы / Perfetti sconosciuti (Паоло Дженовезе / Paolo Genovese) [2016, Италия, драма, комедия, BDRip] VO (LetEatBee)

    Reply to topic
    Author Message


    Post 27-Jun-2016 20:55



    Идеальные незнакомцы / Perfetti sconosciuti
    Страна: Италия
    Жанр: драма, комедия
    Год выпуска: 2016
    Продолжительность: 01:36:03
    Перевод: Одноголосый закадровый LetEatBee по переводу Professor
    Cубтитры: нет
    Режиссер: Паоло Дженовезе / Paolo Genovese
    В ролях: Джузеппе Баттистон, Анна Фольетта, Марко Джаллини, Эдоардо Лео, Валерио Мастандреа, Альба Рорвахер, Касия Смутняк
    Описание: Семеро старых друзей собираются вместе на ужин. Когда они решают начать игру, заключающуюся в том, что им придется читать все поступающие смс вслух, а на звонки отвечать по громкой связи, они и представить себе не могут, к чему приведет такая откровенность...
    Впечатления: лично я бы убрал слово "комедия" из описания... Напоминает мощные театральные постановки, основанные на актерской игре и непрерывном, почти триллерном, развитии сюжета. От легкого традиционного итальянского ситкома это кино стоит далековато. И это хорошо.
    Качество видео: HDRip
    Формат видео: AVI
    Видео: XViD, 720х304, 2.35:1, 23.976 fps, 1391 kb/s
    Аудио: AC3, 48.0 KHz, 448 Kbps, 6 channels


    Format : AVI
    Format/Info : Audio Video Interleave
    File size : 1.24 GiB
    Duration : 1h 36mn
    Overall bit rate : 1 849 Kbps
    Writing application : VirtualDubMod (build 2550/release)
    Writing library : VirtualDubMod build 2550/release
    ID : 0
    Format : MPEG-4 Visual
    Format profile : Advanced Simple@L5
    Format settings, BVOP : No
    Format settings, QPel : No
    Format settings, GMC : No warppoints
    Format settings, Matrix : Custom
    Codec ID : XVID
    Codec ID/Hint : XviD
    Duration : 1h 36mn
    Bit rate : 1 391 Kbps
    Width : 720 pixels
    Height : 304 pixels
    Display aspect ratio : 2.35:1
    Frame rate : 23.976 fps
    Color space : YUV
    Chroma subsampling : 4:2:0
    Bit depth : 8 bits
    Scan type : Progressive
    Compression mode : Lossy
    Bits/(Pixel*Frame) : 0.265
    Stream size : 956 MiB (75%)
    Writing library : XviD 64
    ID : 1
    Format : AC-3
    Format/Info : Audio Coding 3
    Mode extension : CM (complete main)
    Format settings, Endianness : Big
    Codec ID : 2000
    Duration : 1h 36mn
    Bit rate mode : Constant
    Bit rate : 448 Kbps
    Channel(s) : 6 channels
    Channel positions : Front: L C R, Side: L R, LFE
    Sampling rate : 48.0 KHz
    Compression mode : Lossy
    Stream size : 308 MiB (24%)
    Alignment : Split accross interleaves
    Interleave, duration : 42 ms (1.00 video frame)
    Interleave, preload duratio : 500 ms

    Скриншот c названием фильма


    Download .torrent

    Download free and at maximum speed!

    How to Download? · What is a torrent? · Ratings and Limitations

    The site does not extend and does not store electronic(digital) versions of products, and only gives access to a reference catalogue created by users on torrent-files which contain only lists of the hash-sums, the earnest entreaty, with complaints(abuse) to access directly to the user. Files for an exchange on tracker are given by users of a site, and the administration does not bear the responsibility for their maintenance. The request to not fill in the files protected by copyrights, and also files of the illegal maintenance!

    [Profile] [PM]
    Display posts from previous:    
    Reply to topic

    The time now is: Today 08:11

    All times are GMT + 3 Hours

    You cannot post new topics in this forum
    You cannot reply to topics in this forum
    You cannot edit your posts in this forum
    You cannot delete your posts in this forum
    You cannot vote in polls in this forum
    You cannot attach files in this forum
    You cannot download files in this forum