BitTorrentTracker PerecTracker.org
BitTorrentTracker PerecTracker.org
    
Регистрация  ·  Вход
 
 · 
Забыли пароль?

  • Убрать Картера / Покончить с Картером / Get Carter (Стефен Т. Кэй / Stephen T. Kay) [2000, США, боевик, триллер, драма, криминал, BDRip 720p] Dub (Мосфильм) + MVO (Первый Канал) + 3x AVO (Живов, Гаврилов, Визгунов) + Original (Eng) + Sub (Rus, Eng)

    Ответить на тему
     
    Автор Сообщение

    Light

    Создавать темы 27-Июн-2016 15:50

           

    [Цитировать]

    Убрать Картера / Покончить с Картером / Get Carter«The Truth Hurts»-Страна: США
    Жанр: боевик, триллер, драма, криминал
    Год выпуска: 2000
    Продолжительность: 01:42:34-Перевод №1: Профессиональный (дублированный) - Мосфильм
    Перевод №2: Профессиональный (многоголосый закадровый) - Первый Канал - VHS
    Перевод №3: Авторский (одноголосый закадровый) - Юрий Живов
    Перевод №4: Авторский (одноголосый закадровый) - Андрей Гаврилов
    Перевод №5: Авторский (одноголосый закадровый) - Сергей Визгунов - VHS
    Оригинальная аудиодорожка: English
    Cубтитры: Русские (полные), English (full)
    Навигация по главам: присутствует - 29 глав-Режиссер: Стефен Т. Кэй / Stephen T. Kay
    В ролях: Сильвестр Сталлоне, Микки Рурк, Майкл Кейн, Миранда Ричардсон, Рэйчел Ли Кук, Рона Митра, Джонни Стронг, Джон К. МакГинли, Алан Камминг, Джон Кассини.-Описание: Все, кто знаком с Джеком Картером знают, что с ним лучше не связываться. Джек — непревзойденный специалист по решению различных «проблем». Нужно выбить деньги у скрывающегося должника? Джек справится с этим быстро и жестоко. Нужно разобраться с какими-то обнаглевшими «залетными» ребятами? Джек сделает так, что эти парни навсегда забудут, как выглядит дорога на Лас-Вегас.
    В общем, в криминальном мире столицы игорного бизнеса «таланты» Джека уважают и ценят…
    Все началось с очень плохой новости. На другом конце Америки, в дождливом Сиэтле, погибает родной брат Картера, и Джек отправляется на похороны. Что-то подсказывает ему, что брат не умер своей смертью. Джек убежден, что брату «помогли» отправиться на тот свет…- -Качество видео: BDRip 720p | исх. BDRemux 1080p - thx: Jiraya87
    Формат: MKV-Видео: 1280x536 (2.40:1), 23.976 fps, H.264, 6812.52 kb/s, 0.403 bit/pixel
    Аудио №1: 48.0 kHz, AC3 Dolby Digital, 3/2 (L,C,R,l,r) + LFE ch, ~448 kbps avg | Профессиональный (дублированный) - Мосфильм
    Аудио №2: 48.0 kHz, AC3 Dolby Digital, 2/0 (L,R) ch, ~192 kbps avg | Профессиональный (многоголосый закадровый) - Первый Канал - VHS
    Аудио №3: 48.0 kHz, AC3 Dolby Digital, 3/2 (L,C,R,l,r) + LFE ch, ~640 kbps avg | Авторский (одноголосый закадровый) - Юрий Живов
    Аудио №4: 48.0 kHz, AC3 Dolby Digital, 3/2 (L,C,R,l,r) + LFE ch, ~640 kbps avg | Авторский (одноголосый закадровый) - Андрей Гаврилов
    Аудио №5: 48.0 kHz, AC3 Dolby Digital, 2/0 (L,R) ch, ~192 kbps avg | Авторский (одноголосый закадровый) - Сергей Визгунов - VHS
    Аудио №6: 48.0 kHz, AC3 Dolby Digital, 3/2 (L,C,R,l,r) + LFE ch, ~640 kbps avg | English
    Субтитры №1: Русские (полные) | *.srt
    Субтитры №2: English (full) | *.srt-

    MediaInfo

    General
    Unique ID : 183581637987840905384595085412280762839 (0x8A1C8992002E6A42B190B190ABA301D7)
    Complete name : D:\Фильмы\Рипы\Get Carter.2000.BDRip 720p.eFK tRuAVC.mkv
    Format : Matroska
    Format version : Version 4 / Version 2
    File size : 6.86 GiB
    Duration : 1h 42mn
    Overall bit rate : 9 572 Kbps
    Movie name : Убрать Картера / Покончить с Картером / Get Carter (2000) - Release for rutracker
    Encoded date : UTC 2016-06-25 10:30:03
    Writing application : mkvmerge v9.2.0 ('Photograph') 64bit
    Writing library : libebml v1.3.3 + libmatroska v1.4.4
    Attachements : cover.png
    DURATION : 01:42:35.008000000
    NUMBER_OF_FRAMES : 192344
    NUMBER_OF_BYTES : 492400640
    _STATISTICS_WRITING_APP : mkvmerge v9.2.0 ('Photograph') 64bit
    _STATISTICS_WRITING_DATE_UT : 2016-06-25 10:30:03
    _STATISTICS_TAGS : BPS DURATION NUMBER_OF_FRAMES NUMBER_OF_BYTES
    Video
    ID : 1
    Format : AVC
    Format/Info : Advanced Video Codec
    Format profile : High@L4.1
    Format settings, CABAC : Yes
    Format settings, ReFrames : 12 frames
    Codec ID : V_MPEG4/ISO/AVC
    Duration : 1h 42mn
    Bit rate : 6 630 Kbps
    Width : 1 280 pixels
    Height : 536 pixels
    Display aspect ratio : 2.40:1
    Frame rate mode : Constant
    Frame rate : 23.976 fps
    Color space : YUV
    Chroma subsampling : 4:2:0
    Bit depth : 8 bits
    Scan type : Progressive
    Bits/(Pixel*Frame) : 0.403
    Stream size : 4.75 GiB (69%)
    Title : eFK tRuAVC
    Writing library : x264 core 148 r2692kMod 64f4e24
    Encoding settings : cabac=1 / ref=12 / deblock=1:-3:-3 / analyse=0x3:0x113 / me=umh / subme=11 / psy=1 / fade_compensate=0.00 / psy_rd=1.10:0.00 / mixed_ref=1 / me_range=48 / chroma_me=1 / trellis=2 / 8x8dct=1 / cqm=0 / deadzone=21,11 / fast_pskip=0 / chroma_qp_offset=-2 / threads=12 / lookahead_threads=3 / sliced_threads=0 / nr=0 / decimate=1 / interlaced=0 / bluray_compat=0 / constrained_intra=0 / fgo=0 / bframes=16 / b_pyramid=2 / b_adapt=2 / b_bias=0 / direct=3 / weightb=1 / open_gop=0 / weightp=2 / keyint=250 / keyint_min=23 / scenecut=40 / intra_refresh=0 / rc_lookahead=60 / rc=crf / mbtree=0 / crf=16.1000 / qcomp=0.65 / qpmin=0 / qpmax=69 / qpstep=4 / vbv_maxrate=62500 / vbv_bufsize=78125 / crf_max=0.0 / nal_hrd=none / filler=0 / ip_ratio=1.40 / pb_ratio=1.30 / aq=3:0.77
    Language : English
    Default : Yes
    Forced : No
    Color range : Limited
    Color primaries : BT.709
    Transfer characteristics : BT.709
    Matrix coefficients : BT.709
    DURATION : 01:42:34.982000000
    NUMBER_OF_FRAMES : 147572
    NUMBER_OF_BYTES : 5241366604
    _STATISTICS_WRITING_APP : mkvmerge v9.2.0 ('Photograph') 64bit
    _STATISTICS_WRITING_DATE_UT : 2016-06-25 10:30:03
    _STATISTICS_TAGS : BPS DURATION NUMBER_OF_FRAMES NUMBER_OF_BYTES
    Audio #1
    ID : 2
    Format : AC-3
    Format/Info : Audio Coding 3
    Mode extension : CM (complete main)
    Format settings, Endianness : Big
    Codec ID : A_AC3
    Duration : 1h 42mn
    Bit rate mode : Constant
    Bit rate : 448 Kbps
    Channel(s) : 6 channels
    Channel positions : Front: L C R, Side: L R, LFE
    Sampling rate : 48.0 KHz
    Compression mode : Lossy
    Stream size : 329 MiB (5%)
    Title : Профессиональный (дублированный) - Мосфильм
    Language : Russian
    Default : Yes
    Forced : No
    Audio #2
    ID : 3
    Format : AC-3
    Format/Info : Audio Coding 3
    Mode extension : CM (complete main)
    Format settings, Endianness : Big
    Codec ID : A_AC3
    Duration : 1h 42mn
    Bit rate mode : Constant
    Bit rate : 192 Kbps
    Channel(s) : 2 channels
    Channel positions : Front: L R
    Sampling rate : 48.0 KHz
    Compression mode : Lossy
    Stream size : 141 MiB (2%)
    Title : Профессиональный (многоголосый закадровый) - Первый Канал - VHS
    Language : Russian
    Default : No
    Forced : No
    Audio #3
    ID : 4
    Format : AC-3
    Format/Info : Audio Coding 3
    Mode extension : CM (complete main)
    Format settings, Endianness : Big
    Codec ID : A_AC3
    Duration : 1h 42mn
    Bit rate mode : Constant
    Bit rate : 640 Kbps
    Channel(s) : 6 channels
    Channel positions : Front: L C R, Side: L R, LFE
    Sampling rate : 48.0 KHz
    Compression mode : Lossy
    Stream size : 470 MiB (7%)
    Title : Авторский (одноголосый закадровый) - Юрий Живов
    Language : Russian
    Default : No
    Forced : No
    Audio #4
    ID : 5
    Format : AC-3
    Format/Info : Audio Coding 3
    Mode extension : CM (complete main)
    Format settings, Endianness : Big
    Codec ID : A_AC3
    Duration : 1h 42mn
    Bit rate mode : Constant
    Bit rate : 640 Kbps
    Channel(s) : 6 channels
    Channel positions : Front: L C R, Side: L R, LFE
    Sampling rate : 48.0 KHz
    Compression mode : Lossy
    Stream size : 470 MiB (7%)
    Title : Авторский (одноголосый закадровый) - Андрей Гаврилов
    Language : Russian
    Default : No
    Forced : No
    Audio #5
    ID : 6
    Format : AC-3
    Format/Info : Audio Coding 3
    Mode extension : CM (complete main)
    Format settings, Endianness : Big
    Codec ID : A_AC3
    Duration : 1h 42mn
    Bit rate mode : Constant
    Bit rate : 192 Kbps
    Channel(s) : 2 channels
    Channel positions : Front: L R
    Sampling rate : 48.0 KHz
    Compression mode : Lossy
    Stream size : 141 MiB (2%)
    Title : Авторский (одноголосый закадровый) - Сергей Визгунов - VHS
    Language : Russian
    Default : No
    Forced : No
    Audio #6
    ID : 7
    Format : AC-3
    Format/Info : Audio Coding 3
    Mode extension : CM (complete main)
    Format settings, Endianness : Big
    Codec ID : A_AC3
    Duration : 1h 42mn
    Bit rate mode : Constant
    Bit rate : 640 Kbps
    Channel(s) : 6 channels
    Channel positions : Front: L C R, Side: L R, LFE
    Sampling rate : 48.0 KHz
    Compression mode : Lossy
    Stream size : 470 MiB (7%)
    Language : English
    Default : No
    Forced : No
    Text #1
    ID : 8
    Format : UTF-8
    Codec ID : S_TEXT/UTF8
    Codec ID/Info : UTF-8 Plain Text
    Title : полные
    Language : Russian
    Default : No
    Forced : No
    Text #2
    ID : 9
    Format : UTF-8
    Codec ID : S_TEXT/UTF8
    Codec ID/Info : UTF-8 Plain Text
    Title : full
    Language : English
    Default : No
    Forced : No
    Menu
    00:00:00.000 : :00:00:00.000
    00:03:28.333 : :00:03:28.333
    00:06:04.197 : :00:06:04.197
    00:10:30.338 : :00:10:30.338
    00:15:11.494 : :00:15:11.494
    00:18:28.607 : :00:18:28.607
    00:22:26.178 : :00:22:26.178
    00:29:16.630 : :00:29:16.630
    00:32:59.102 : :00:32:59.102
    00:36:58.341 : :00:36:58.341
    00:42:04.147 : :00:42:04.147
    00:44:58.529 : :00:44:58.529
    00:49:51.155 : :00:49:51.155
    00:53:01.970 : :00:53:01.970
    00:56:04.695 : :00:56:04.695
    01:00:42.180 : :01:00:42.180
    01:02:40.757 : :01:02:40.757
    01:05:41.479 : :01:05:41.479
    01:08:53.421 : :01:08:53.421
    01:15:29.275 : :01:15:29.275
    01:16:45.726 : :01:16:45.726
    01:18:10.811 : :01:18:10.811
    01:21:52.449 : :01:21:52.449
    01:26:15.962 : :01:26:15.962
    01:29:27.904 : :01:29:27.904
    01:33:48.248 : :01:33:48.248
    01:35:57.543 : :01:35:57.543
    01:38:24.064 : :01:38:24.064
    01:42:32.779 : :01:42:32.779

    x264 log

    x264 [info]: frame I:880 Avg QP:15.53 size: 97936
    x264 [info]: frame P:33433 Avg QP:17.67 size: 57919
    x264 [info]: frame B:113259 Avg QP:19.28 size: 28420
    x264 [info]: consecutive B-frames: 3.0% 4.1% 7.6% 17.4% 19.0% 33.9% 6.3% 3.6% 1.7% 1.5% 0.6% 0.3% 0.4% 0.2% 0.0% 0.1% 0.3%
    x264 [info]: mb I I16..4: 3.9% 86.2% 9.9%
    x264 [info]: mb P I16..4: 0.5% 32.0% 1.6% P16..4: 20.1% 29.0% 13.0% 0.0% 0.0% skip: 3.8%
    x264 [info]: mb B I16..4: 0.1% 5.2% 0.1% B16..8: 34.7% 28.9% 7.7% direct:10.1% skip:13.1% L0:47.6% L1:38.0% BI:14.5%
    x264 [info]: 8x8 transform intra:94.0% inter:54.3%
    x264 [info]: direct mvs spatial:99.9% temporal:0.1%
    x264 [info]: coded y,uvDC,uvAC intra: 96.9% 90.4% 78.3% inter: 55.8% 35.6% 9.4%
    x264 [info]: i16 v,h,dc,p: 51% 7% 5% 36%
    x264 [info]: i8 v,h,dc,ddl,ddr,vr,hd,vl,hu: 12% 8% 10% 10% 13% 12% 11% 12% 13%
    x264 [info]: i4 v,h,dc,ddl,ddr,vr,hd,vl,hu: 17% 7% 5% 8% 14% 14% 12% 11% 11%
    x264 [info]: i8c dc,h,v,p: 49% 19% 16% 16%
    x264 [info]: Weighted P-Frames: Y:6.9% UV:4.4%
    x264 [info]: ref P L0: 39.8% 9.0% 17.3% 8.0% 6.6% 4.8% 4.2% 2.5% 2.3% 1.9% 1.8% 1.6% 0.2% 0.0%
    x264 [info]: ref B L0: 65.9% 12.6% 7.1% 3.9% 2.9% 2.4% 1.9% 1.3% 1.1% 0.7% 0.2%
    x264 [info]: ref B L1: 93.7% 6.3%
    x264 [info]: kb/s:6812.52
    x264 [total]: encoded 147572 frames, 5.62 fps, 6812.52 kb/s, duration 7:17:44.64

    Screenshots

    ComparisonSource

    Encode
    Цитата:

    • За перевод Первого Канала огромное спасибо Sp1end1d - собственная запись перевода с телеканала ОРТ в начале 2000-х годов через видеомагнитофон и оцифровка с видеокассеты.
    • За перевод Сергея Визгунова огромное спасибо Fikaloid - собственная оцифровка Сергея Визгунова со своей видеокассеты.
    • За синхронизацию переводов Сергея Визгунова и Первого Канала под BD огромное спасибо JUSTKANT
    • За перевод Андрея Гаврилова огромное спасибо пользователям форума hdtracker - rydanes, GaryH, Wolf_Larsen, -Джосс-, _MyxAmoP_, dunhill200, Chistobaev, lexal, SavineX, Pain_70, Hattori Hanzo, kinobbk, Luka69, chef&chef, olegsoleg, foxlight, Brown15, milocerd0v, Role, Rolly Tyler, Guyver, Denis2251, Диммон, Gangster, karantin66, kondratzx, Schmulke, HDKing, therox, nimph, timur.
    Скачать .torrent

    Скачать торрент-файл бесплатно и на максимальной скорости!

    Как скачивать? · Что такое торрент? · Рейтинг и ограничения

    !ВНИМАНИЕ!
    Сайт не распространяет и не хранит электронные версии произведений, а занимается лишь лишь предоставлением доступа к создаваемому пользователями каталогу ссылок на торрент-файлы, которые содержат только списки хеш-сумм, убедительная просьба с жалобами обращаться напрямую к пользователю. Файлы для обмена на трекере предоставлены пользователями сайта, и администрация не несёт ответственности за их содержание. Просьба не заливать файлы, защищенные авторскими правами, а также файлы нелегального содержания!


    _________________
    [Профиль] [ЛС]
    Показать сообщения:    
    Ответить на тему

    Текущее время: Сегодня, в 01:12

    Часовой пояс: GMT + 2



    Вы не можете начинать темы
    Вы не можете отвечать на сообщения
    Вы не можете редактировать свои сообщения
    Вы не можете удалять свои сообщения
    Вы не можете голосовать в опросах
    Вы не можете прикреплять файлы к сообщениям
    Вы не можете скачивать файлы