BitTorrentTracker PerecTracker.org
BitTorrentTracker PerecTracker.org
    
Регистрация  ·  Вход
 
 · 
Забыли пароль?

  • Увлечение / Увлечение без взаимности / Роковое увлечение / Соблазнительница / The Crush (Алан Шапиро / Alan Shapiro) [1993, США, триллер, драма, BDRemux 1080p] 3x DVO + 2x AVO + Sub Eng + Original Eng + Commentary Eng

    Ответить на тему
     
    Автор Сообщение

    Light

    Создавать темы 27-Июн-2016 15:50

           

    [Цитировать]

    Увлечение / Увлечение без взаимности / Роковое увлечение / Соблазнительница / The Crush«Её влюблённость может быть смертельно опасной»
    Страна: США
    Жанр: триллер, драма
    Год выпуска: 1993
    Продолжительность: 01:29:01
    Перевод 1: Профессиональный (двухголосый закадровый) Премьер Видео
    Перевод 2: Профессиональный (двухголосый закадровый) НТВ
    Перевод 3: Профессиональный (двухголосый закадровый) НТВ+
    Перевод 4: Авторский (одноголосый закадровый) Вартан Дохалов
    Перевод 5: Авторский (одноголосый закадровый) Юрий Живов
    Cубтитры: английские [SDH]
    Оригинальная аудиодорожка: английский
    -
    Режиссер: Алан Шапиро / Alan Shapiro
    В ролях: Кэри Элвис, Алисия Сильверстоун, Дженнифер Рубин, Кертвуд Смит, Эмбер Бенсон, Гвинит Уолш, Мэттью Уолкер, Дебора Хэнкок, Беверли Эллиотт, Эндрю Эйрли
    -
    Описание: Жизнь Ника Элиота окончательно наладилась. Он получил отличную работу в популярном журнале, завязал романтические отношения с чудесной девушкой Эми и снял уютный домик у богатой супружеской четы в престижном квартале. Когда же Ник познакомился с 14-летней дочерью хозяев Эдриан, она буквально очаровала молодого журналиста своей красотой, умом и формами. А Эдриан просто обезумела от страсти к Нику. Но, не встретив взаимности, благовоспитанный подросток быстро превратился в одержимую ревностью мстительницу. Потому что Эдриан привыкла всегда получать все, что хочет. И если любимый не достанется ей, то не достанется никому...

    За озвучку благодарности уходят:
    Аудио 1-3 --> Генератор Зла
    Аудио 4 --> denisalexeew
    Аудио 5 --> Cocotte32

    Тип релиза: BDRemux 1080p
    Контейнер: MKV
    Видео: MPEG-4 AVC / NTSC 16:9 / 1920x1080 (1,78:1) / 29841 kbps / 23,976 fps / 0.600 bit/pixel / High@L4.1
    Аудио 1: Russian / Dolby Digital Audio / 2.0 Ch / 48 kHz / 192 kbps / 16 bit / DVO / Премьер Видео
    Аудио 2: Russian / Dolby Digital Audio / 2.0 Ch / 48 kHz / 192 kbps / 16 bit / DVO / НТВ
    Аудио 3: Russian / Dolby Digital Audio / 2.0 Ch / 48 kHz / 192 kbps / 16 bit / DVO / НТВ+
    Аудио 4: Russian / Dolby Digital Audio / 2.0 Ch / 48 kHz / 192 kbps / 16 bit / AVO / Вартан Дохалов
    Аудио 5: Russian / Dolby Digital Audio / 2.0 Ch / 48 kHz / 192 kbps / 16 bit / AVO / Юрий Живов
    Аудио 6: English / DTS-HD Master Audio / 5.1 Ch / 48 kHz / 2304 kbps / 24-bit (DTS Core: 5.1 Ch / 48 kHz / 1509 kbps / 24-bit) / Original
    Аудио 7: English / DTS-HD Master Audio / 2.0 Ch / 48 kHz / 1745 kbps / 24-bit (DTS Core: 2.0 Ch / 48 kHz / 1509 kbps / 24-bit) / Commentary
    Формат субтитров: softsub (SRT)
    Навигация по главам: есть

    MediaInfo

    Общее
    Уникальный идентификатор                 : 242870299705211990403034640142988009440 (0xB6B71E47A0C6ABC38CF6625595F0DFE0)
    Полное имя                               : F:\The Crush.1993.BDRemux.1080p.mkv
    Формат                                   : Matroska
    Версия формата                           : Version 4 / Version 2
    Размер файла                             : 21,7 Гбайт
    Продолжительность                        : 1 ч. 29 м.
    Режим общего битрейта                    : Переменный
    Общий поток                              : 34,9 Мбит/сек
    Дата кодирования                         : UTC 2016-06-25 22:48:48
    Программа кодирования                    : mkvmerge v9.2.0 ('Photograph') 64bit
    Библиотека кодирования                   : libebml v1.3.3 + libmatroska v1.4.4
    Видео
    Идентификатор                            : 1
    Формат                                   : AVC
    Формат/Информация                        : Advanced Video Codec
    Профиль формата                          : High@L4.1
    Параметр CABAC формата                   : Да
    Параметр ReFrames формата                : 4 кадра
    Идентификатор кодека                     : V_MPEG4/ISO/AVC
    Продолжительность                        : 1 ч. 29 м.
    Вид битрейта                             : Переменный
    Битрейт                                  : 29,8 Мбит/сек
    Максимальный битрейт                     : 35,0 Мбит/сек
    Ширина                                   : 1920 пикселей
    Высота                                   : 1080 пикселей
    Соотношение сторон                       : 16:9
    Режим частоты кадров                     : Постоянный
    Частота кадров                           : 23,976 (24000/1001) кадра/сек
    Цветовое пространство                    : YUV
    Субдискретизация насыщенности            : 4:2:0
    Битовая глубина                          : 8 бит
    Тип развёртки                            : Прогрессивная
    Бит/(Пиксели*Кадры)                      : 0.600
    Размер потока                            : 18,6 Гбайт (86%)
    Язык                                     : English
    Default                                  : Да
    Forced                                   : Нет
    Аудио #1
    Идентификатор                            : 2
    Формат                                   : AC-3
    Формат/Информация                        : Audio Coding 3
    Расширение режима                        : CM (complete main)
    Параметр Endianness формата              : Big
    Идентификатор кодека                     : A_AC3
    Продолжительность                        : 1 ч. 29 м.
    Вид битрейта                             : Постоянный
    Битрейт                                  : 192 Кбит/сек
    Каналы                                   : 2 канала
    Расположение каналов                     : Front: L R
    Частота                                  : 48,0 КГц
    Частота кадров                           : 31,250 кадров/сек (1536 spf)
    Метод сжатия                             : С потерями
    Размер потока                            : 122 Мбайт (1%)
    Заголовок                                : MVO / Премьер Видео
    Язык                                     : Russian
    Default                                  : Да
    Forced                                   : Нет
    Аудио #2
    Идентификатор                            : 3
    Формат                                   : AC-3
    Формат/Информация                        : Audio Coding 3
    Расширение режима                        : CM (complete main)
    Параметр Endianness формата              : Big
    Идентификатор кодека                     : A_AC3
    Продолжительность                        : 1 ч. 29 м.
    Вид битрейта                             : Постоянный
    Битрейт                                  : 192 Кбит/сек
    Каналы                                   : 2 канала
    Расположение каналов                     : Front: L R
    Частота                                  : 48,0 КГц
    Частота кадров                           : 31,250 кадров/сек (1536 spf)
    Метод сжатия                             : С потерями
    Размер потока                            : 122 Мбайт (1%)
    Заголовок                                : DVO / НТВ
    Язык                                     : Russian
    Default                                  : Нет
    Forced                                   : Нет
    Аудио #3
    Идентификатор                            : 4
    Формат                                   : AC-3
    Формат/Информация                        : Audio Coding 3
    Расширение режима                        : CM (complete main)
    Параметр Endianness формата              : Big
    Идентификатор кодека                     : A_AC3
    Продолжительность                        : 1 ч. 29 м.
    Вид битрейта                             : Постоянный
    Битрейт                                  : 192 Кбит/сек
    Каналы                                   : 2 канала
    Расположение каналов                     : Front: L R
    Частота                                  : 48,0 КГц
    Частота кадров                           : 31,250 кадров/сек (1536 spf)
    Метод сжатия                             : С потерями
    Размер потока                            : 122 Мбайт (1%)
    Заголовок                                : MVO / НТВ+
    Язык                                     : Russian
    Default                                  : Нет
    Forced                                   : Нет
    Аудио #4
    Идентификатор                            : 5
    Формат                                   : AC-3
    Формат/Информация                        : Audio Coding 3
    Расширение режима                        : CM (complete main)
    Параметр Endianness формата              : Big
    Идентификатор кодека                     : A_AC3
    Продолжительность                        : 1 ч. 27 м.
    Вид битрейта                             : Постоянный
    Битрейт                                  : 192 Кбит/сек
    Каналы                                   : 2 канала
    Расположение каналов                     : Front: L R
    Частота                                  : 48,0 КГц
    Частота кадров                           : 31,250 кадров/сек (1536 spf)
    Метод сжатия                             : С потерями
    Размер потока                            : 120 Мбайт (1%)
    Заголовок                                : AVO / Вартан Дохалов
    Язык                                     : Russian
    Default                                  : Нет
    Forced                                   : Нет
    Аудио #5
    Идентификатор                            : 6
    Формат                                   : AC-3
    Формат/Информация                        : Audio Coding 3
    Расширение режима                        : CM (complete main)
    Параметр Endianness формата              : Big
    Идентификатор кодека                     : A_AC3
    Продолжительность                        : 1 ч. 28 м.
    Вид битрейта                             : Постоянный
    Битрейт                                  : 192 Кбит/сек
    Каналы                                   : 2 канала
    Расположение каналов                     : Front: L R
    Частота                                  : 48,0 КГц
    Частота кадров                           : 31,250 кадров/сек (1536 spf)
    Метод сжатия                             : С потерями
    Размер потока                            : 122 Мбайт (1%)
    Заголовок                                : AVO / Юрий Живов
    Язык                                     : Russian
    Default                                  : Нет
    Forced                                   : Нет
    Аудио #6
    Идентификатор                            : 7
    Формат                                   : DTS
    Формат/Информация                        : Digital Theater Systems
    Профиль формата                          : MA / Core
    Режим                                    : 16
    Параметр Endianness формата              : Big
    Идентификатор кодека                     : A_DTS
    Продолжительность                        : 1 ч. 29 м.
    Вид битрейта                             : Переменный / Постоянный
    Битрейт                                  : 2304 Кбит/сек / 1509 Кбит/сек
    Каналы                                   : 6 каналов
    Расположение каналов                     : Front: L C R, Side: L R, LFE
    Частота                                  : 48,0 КГц
    Частота кадров                           : 93,750 кадра/сек (512 spf)
    Битовая глубина                          : 24 бит
    Метод сжатия                             : Без потерь / Lossy
    Размер потока                            : 1,43 Гбайт (7%)
    Заголовок                                : Original
    Язык                                     : English
    Default                                  : Нет
    Forced                                   : Нет
    Аудио #7
    Идентификатор                            : 8
    Формат                                   : DTS
    Формат/Информация                        : Digital Theater Systems
    Профиль формата                          : MA / Core
    Режим                                    : 16
    Параметр Endianness формата              : Big
    Идентификатор кодека                     : A_DTS
    Продолжительность                        : 1 ч. 29 м.
    Вид битрейта                             : Переменный / Постоянный
    Битрейт                                  : 1745 Кбит/сек / 1509 Кбит/сек
    Каналы                                   : 2 канала
    Расположение каналов                     : Front: L R
    Частота                                  : 48,0 КГц
    Частота кадров                           : 93,750 кадра/сек (512 spf)
    Битовая глубина                          : 24 бит
    Метод сжатия                             : Без потерь / Lossy
    Размер потока                            : 1,09 Гбайт (5%)
    Заголовок                                : Audio Commentary with writer/director Alan Shapiro
    Язык                                     : English
    Default                                  : Нет
    Forced                                   : Нет
    Текст
    Идентификатор                            : 9
    Формат                                   : UTF-8
    Идентификатор кодека                     : S_TEXT/UTF8
    Идентификатор кодека/Информация          : UTF-8 Plain Text
    Продолжительность                        : 1 ч. 23 м.
    Битрейт                                  : 48 бит/сек
    Count of elements                        : 1250
    Размер потока                            : 29,9 Кбайт (0%)
    Заголовок                                : Original / SDH
    Язык                                     : English
    Default                                  : Нет
    Forced                                   : Нет
    Меню
    00:00:00.000                             : en:00:00:00.000
    00:10:05.313                             : en:00:10:05.313
    00:24:20.584                             : en:00:24:20.584
    00:38:19.380                             : en:00:38:19.380
    00:48:10.346                             : en:00:48:10.346
    01:00:47.686                             : en:01:00:47.686
    01:10:18.589                             : en:01:10:18.589
    01:25:07.102                             : en:01:25:07.102

    Скриншоты

    Скачать .torrent

    Скачать торрент-файл бесплатно и на максимальной скорости!

    Как скачивать? · Что такое торрент? · Рейтинг и ограничения

    !ВНИМАНИЕ!
    Сайт не распространяет и не хранит электронные версии произведений, а занимается лишь лишь предоставлением доступа к создаваемому пользователями каталогу ссылок на торрент-файлы, которые содержат только списки хеш-сумм, убедительная просьба с жалобами обращаться напрямую к пользователю. Файлы для обмена на трекере предоставлены пользователями сайта, и администрация не несёт ответственности за их содержание. Просьба не заливать файлы, защищенные авторскими правами, а также файлы нелегального содержания!


    _________________
    [Профиль] [ЛС]
    Показать сообщения:    
    Ответить на тему

    Текущее время: Сегодня, в 17:59

    Часовой пояс: GMT + 2



    Вы не можете начинать темы
    Вы не можете отвечать на сообщения
    Вы не можете редактировать свои сообщения
    Вы не можете удалять свои сообщения
    Вы не можете голосовать в опросах
    Вы не можете прикреплять файлы к сообщениям
    Вы не можете скачивать файлы