BitTorrentTracker PerecTracker.org
BitTorrentTracker PerecTracker.org
    
Регистрация  ·  Вход
 
 · 
Забыли пароль?

  • Патрик / Patrick (Ричард Франклин / Richard Franklin) [1978, Австралия, ужасы, фантастика, триллер, BDRip 720p] MVO (Cinema Prestige) + Original (Eng) + Sub (Rus)

    Ответить на тему
     
    Автор Сообщение

    Light

    Создавать темы 27-Июн-2016 15:50

           

    [Цитировать]

    Патрик / Patrick«Patrick is Nearly Dead ... And Still He Kills!»-Страна: Австралия
    Жанр: ужасы, фантастика, триллер
    Год выпуска: 1978
    Продолжительность: 01:52:22-Перевод: Профессиональный (многоголосый закадровый) - Cinema Prestige
    Оригинальная аудиодорожка: English
    Cубтитры: Русские (полные)
    Навигация по главам: присутствует - 13 глав-Режиссер: Ричард Франклин / Richard Franklin
    В ролях: Сьюзен Пенхалигон, Роберт Хелпманн, Род Муллинар, Брюс Бэрри, Джулия Блейк, Хелен Хемингуэй, Мария Мерседес, Уолтер Пим, Фрэнк Уилсон, Кэрол-Энн Айлетт-Описание: Юноша по имени Патрик, убивший своих родителей, уже в течение трех лет находится в клинике доктора Роже. Три года он неподвижно лежит на кровати с открытыми глазами, и, по словам врача, мозг пациента в абсолютной отключке. Он, как растение — никаких реакций или рефлексов. И некоторые сотрудники клиники считают, что его давно надо было бы умертвить из гуманных соображений. Но новая медсестра, молоденькая и хорошенькая Кэти, считает иначе. Начав ухаживать за Патриком, она вдруг понимает, что между ними устанавливается какая-то связь, но вскоре в ее жизни начинают происходить нелепые, загадочные и странные события, постепенно перерастающие в кошмары…- -Качество видео: BDRip 720p | исх. BDRemux 1080p - thx: flaSI-I
    Формат: MKV-Видео: 1280x692 (1.85:1), 24.000 fps, H.264, 10744.20 kb/s, 0.494 bit/pixel
    Аудио №1: 48.0 kHz, AC3 Dolby Digital, 2/0 (L,R) ch, ~192 kbps avg | Профессиональный (многоголосый закадровый) - Cinema Prestige
    Аудио №2: 48.0 kHz, AC3 Dolby Digital, 2/0 (L,R) ch, ~640 kbps avg | English
    Аудио №3: 48.0 kHz, AC3 Dolby Digital, 2/0 (L,R) ch, ~448 kbps avg | English - Audio Commentary with Richard Franklin
    Субтитры: Русские (полные) | *.srt-

    MediaInfo

    General
    Unique ID : 221533141098343403569130150834493542429 (0xA6A9BB23929C01B5B7E897A5DB59501D)
    Complete name : D:\Фильмы\Рипы\Patrick.1978.BDRip 720p.eFK tRuAVC.mkv
    Format : Matroska
    Format version : Version 4 / Version 2
    File size : 9.44 GiB
    Duration : 1h 52mn
    Overall bit rate : 12.0 Mbps
    Movie name : Патрик / Patrick (1978) - Release for rutracker
    Encoded date : UTC 2016-06-26 11:06:50
    Writing application : mkvmerge v9.2.0 ('Photograph') 64bit
    Writing library : libebml v1.3.3 + libmatroska v1.4.4
    Attachements : cover.png
    DURATION : 01:52:20.032000000
    NUMBER_OF_FRAMES : 210626
    NUMBER_OF_BYTES : 539202560
    _STATISTICS_WRITING_APP : mkvmerge v9.2.0 ('Photograph') 64bit
    _STATISTICS_WRITING_DATE_UT : 2016-06-26 11:06:50
    _STATISTICS_TAGS : BPS DURATION NUMBER_OF_FRAMES NUMBER_OF_BYTES
    Video
    ID : 1
    Format : AVC
    Format/Info : Advanced Video Codec
    Format profile : High@L4.1
    Format settings, CABAC : Yes
    Format settings, ReFrames : 9 frames
    Codec ID : V_MPEG4/ISO/AVC
    Duration : 1h 52mn
    Bit rate : 10.5 Mbps
    Width : 1 280 pixels
    Height : 692 pixels
    Display aspect ratio : 1.85:1
    Frame rate mode : Constant
    Frame rate : 24.000 fps
    Color space : YUV
    Chroma subsampling : 4:2:0
    Bit depth : 8 bits
    Scan type : Progressive
    Bits/(Pixel*Frame) : 0.494
    Stream size : 8.25 GiB (87%)
    Title : eFK tRuAVC
    Writing library : x264 core 148 r2692kMod 64f4e24
    Encoding settings : cabac=1 / ref=9 / deblock=1:-3:-3 / analyse=0x3:0x113 / me=umh / subme=11 / psy=1 / fade_compensate=0.00 / psy_rd=1.17:0.05 / mixed_ref=1 / me_range=48 / chroma_me=1 / trellis=2 / 8x8dct=1 / cqm=0 / deadzone=21,11 / fast_pskip=0 / chroma_qp_offset=-3 / threads=12 / lookahead_threads=3 / sliced_threads=0 / nr=0 / decimate=1 / interlaced=0 / bluray_compat=0 / constrained_intra=0 / fgo=0 / bframes=16 / b_pyramid=2 / b_adapt=2 / b_bias=0 / direct=3 / weightb=1 / open_gop=0 / weightp=2 / keyint=250 / keyint_min=24 / scenecut=40 / intra_refresh=0 / rc_lookahead=60 / rc=crf / mbtree=0 / crf=18.0000 / qcomp=0.60 / qpmin=0 / qpmax=69 / qpstep=4 / vbv_maxrate=62500 / vbv_bufsize=78125 / crf_max=0.0 / nal_hrd=none / filler=0 / ip_ratio=1.40 / pb_ratio=1.30 / aq=3:0.70
    Language : English
    Default : Yes
    Forced : No
    Color range : Limited
    Color primaries : BT.709
    Transfer characteristics : BT.709
    Matrix coefficients : BT.709
    DURATION : 01:52:20.792000000
    NUMBER_OF_FRAMES : 161779
    NUMBER_OF_BYTES : 9053049855
    _STATISTICS_WRITING_APP : mkvmerge v9.2.0 ('Photograph') 64bit
    _STATISTICS_WRITING_DATE_UT : 2016-06-26 11:06:50
    _STATISTICS_TAGS : BPS DURATION NUMBER_OF_FRAMES NUMBER_OF_BYTES
    Audio #1
    ID : 2
    Format : AC-3
    Format/Info : Audio Coding 3
    Mode extension : CM (complete main)
    Format settings, Endianness : Big
    Codec ID : A_AC3
    Duration : 1h 52mn
    Bit rate mode : Constant
    Bit rate : 192 Kbps
    Channel(s) : 2 channels
    Channel positions : Front: L R
    Sampling rate : 48.0 KHz
    Compression mode : Lossy
    Stream size : 154 MiB (2%)
    Title : Профессиональный (многоголосый закадровый) - Cinema Prestige
    Language : Russian
    Default : Yes
    Forced : No
    Audio #2
    ID : 3
    Format : AC-3
    Format/Info : Audio Coding 3
    Mode extension : CM (complete main)
    Format settings, Endianness : Big
    Codec ID : A_AC3
    Duration : 1h 52mn
    Bit rate mode : Constant
    Bit rate : 640 Kbps
    Channel(s) : 2 channels
    Channel positions : Front: L R
    Sampling rate : 48.0 KHz
    Compression mode : Lossy
    Stream size : 514 MiB (5%)
    Language : English
    Default : No
    Forced : No
    Audio #3
    ID : 4
    Format : AC-3
    Format/Info : Audio Coding 3
    Mode extension : CM (complete main)
    Format settings, Endianness : Big
    Codec ID : A_AC3
    Duration : 1h 52mn
    Bit rate mode : Constant
    Bit rate : 448 Kbps
    Channel(s) : 2 channels
    Channel positions : Front: L R
    Sampling rate : 48.0 KHz
    Compression mode : Lossy
    Stream size : 360 MiB (4%)
    Title : Audio Commentary with Richard Franklin
    Language : English
    Default : No
    Forced : No
    Text
    ID : 5
    Format : UTF-8
    Codec ID : S_TEXT/UTF8
    Codec ID/Info : UTF-8 Plain Text
    Title : полные
    Language : Russian
    Default : No
    Forced : No
    Menu
    00:00:00.000 : en:00:00:00.000
    00:05:00.417 : en:00:05:00.417
    00:12:08.583 : en:00:12:08.583
    00:22:58.833 : en:00:22:58.833
    00:30:54.958 : en:00:30:54.958
    00:40:34.458 : en:00:40:34.458
    00:51:34.708 : en:00:51:34.708
    01:01:47.583 : en:01:01:47.583
    01:11:29.917 : en:01:11:29.917
    01:20:45.625 : en:01:20:45.625
    01:29:37.042 : en:01:29:37.042
    01:40:56.500 : en:01:40:56.500
    01:50:24.917 : en:01:50:24.917

    x264 log

    x264 [info]: frame I:893 Avg QP:17.41 size:126950
    x264 [info]: frame P:26130 Avg QP:18.35 size: 77260
    x264 [info]: frame B:134756 Avg QP:20.69 size: 51359
    x264 [info]: consecutive B-frames: 0.9% 0.6% 2.0% 4.2% 8.6% 52.8% 7.5% 2.5% 4.0% 2.2% 3.9% 8.0% 1.1% 0.5% 0.4% 0.5% 0.4%
    x264 [info]: mb I I16..4: 1.0% 93.3% 5.7%
    x264 [info]: mb P I16..4: 0.1% 36.1% 1.1% P16..4: 20.5% 28.8% 13.0% 0.0% 0.0% skip: 0.4%
    x264 [info]: mb B I16..4: 0.1% 10.2% 0.2% B16..8: 39.8% 26.2% 7.2% direct:11.4% skip: 5.0% L0:52.0% L1:39.2% BI: 8.8%
    x264 [info]: 8x8 transform intra:96.9% inter:68.1%
    x264 [info]: direct mvs spatial:99.8% temporal:0.2%
    x264 [info]: coded y,uvDC,uvAC intra: 97.7% 96.1% 82.0% inter: 76.0% 66.2% 11.2%
    x264 [info]: i16 v,h,dc,p: 50% 12% 7% 31%
    x264 [info]: i8 v,h,dc,ddl,ddr,vr,hd,vl,hu: 8% 6% 10% 11% 15% 13% 12% 12% 12%
    x264 [info]: i4 v,h,dc,ddl,ddr,vr,hd,vl,hu: 45% 4% 6% 6% 8% 10% 7% 8% 6%
    x264 [info]: i8c dc,h,v,p: 53% 18% 15% 14%
    x264 [info]: Weighted P-Frames: Y:16.4% UV:9.3%
    x264 [info]: ref P L0: 30.7% 9.5% 17.9% 10.3% 8.8% 7.1% 6.5% 4.2% 4.1% 0.8% 0.0%
    x264 [info]: ref B L0: 52.6% 16.5% 11.0% 6.6% 5.3% 4.6% 2.7% 0.6%
    x264 [info]: ref B L1: 88.5% 11.5%
    x264 [info]: kb/s:10744.20
    x264 [total]: encoded 161779 frames, 4.53 fps, 10744.20 kb/s, duration 9:55:19.20

    Screenshots

    Comparison

    Source

    Encode
    Скачать .torrent

    Скачать торрент-файл бесплатно и на максимальной скорости!

    Как скачивать? · Что такое торрент? · Рейтинг и ограничения

    !ВНИМАНИЕ!
    Сайт не распространяет и не хранит электронные версии произведений, а занимается лишь лишь предоставлением доступа к создаваемому пользователями каталогу ссылок на торрент-файлы, которые содержат только списки хеш-сумм, убедительная просьба с жалобами обращаться напрямую к пользователю. Файлы для обмена на трекере предоставлены пользователями сайта, и администрация не несёт ответственности за их содержание. Просьба не заливать файлы, защищенные авторскими правами, а также файлы нелегального содержания!


    _________________
    [Профиль] [ЛС]
    Показать сообщения:    
    Ответить на тему

    Текущее время: Сегодня, в 22:09

    Часовой пояс: GMT + 2



    Вы не можете начинать темы
    Вы не можете отвечать на сообщения
    Вы не можете редактировать свои сообщения
    Вы не можете удалять свои сообщения
    Вы не можете голосовать в опросах
    Вы не можете прикреплять файлы к сообщениям
    Вы не можете скачивать файлы