BitTorrentTracker PerecTracker.org
BitTorrentTracker PerecTracker.org
    
Регистрация  ·  Вход
 
 · 
Забыли пароль?

  • Не в моём вкусе / Pas son genre (Люка Бельво / Lucas Belvaux) [2014, Бельгия, Франция, Драма, мелодрама, HDRip] MVO

    Ответить на тему
     
    Автор Сообщение

    Light

    Создавать темы 27-Июн-2016 15:50

           

    [Цитировать]

    Не в моём вкусе / Pas son genre
    Страна: Бельгия, Франция
    Жанр: Драма, мелодрама
    Год выпуска: 2014
    Продолжительность: 01:51:45
    Перевод: Профессиональный (многоголосый закадровый)
    Cубтитры: нет
    Режиссер: Люка Бельво / Lucas Belvaux
    В ролях: Эмили Декьенн, Лоик Корбери, Сандра Нкаке, Шарлотта Талпер, Анн Косенс, Даниэла Бисконти, Дидье Сандр, Мартин Шевалье, Флориан Тирье, Аннелиз Эм
    Описание: Клеман – молодой человек, который работает преподавателем философии в одном из престижных университетов столицы. Его приглашают прочитать несколько лекций в провинциальном городе, и он с радостью соглашается. Приехав в городок, Клеман думает, что ничего его удивить не сможет, однако глубоко ошибается. Судьба дарит ему встречу с очаровательной девушкой Дженнифер. Она работает парикмахером и получает огромное удовольствие от своей работы, так как думает, что в ее руках силы преобразить человека и сделать его более интересным и красивым. Казалось бы серьезный Клеман и жизнерадостная Дженнифер абсолютно друг на друга не похожи, но все же между ними завязывается роман. Парень часами готов рассказывать любимой о науке, космосе и философии, а она приглашает его в караоке клуб, чтобы он смог как следует отдохнуть и повеселиться. Кажется их страстной любви должно быть достаточно для семейной жизни, но вскоре Дженнифер начинает не доверять своему парню, так как думает, что он во многом, а особенно в своих чувствах ей врет....
    Рейтинг : -- IMDB / IMDb - 6,5
    Сэмпл: http://multi-up.com/1107522
    Качество видео: HDRip
    Формат видео: AVI
    Видео: XviD 1.2.1, 720x304, (2,35:1), 23,976 fps, 1478 Кбит/с, 8 бит
    Аудио: Русский (AC-3, 6 ch (Front: L C R, Side: L R, LFE), 48,0 KHz, 384 Kbps)

    MediaInfo

    Общее
    Полное имя : F:\Видеофильмы\В и д е о\Не в моём вкусе (драма, мелодрама 2014г).avi
    Формат : AVI
    Формат/Информация : Audio Video Interleave
    Размер файла : 1,46 Гбайт
    Продолжительность : 1 ч. 51 м.
    Общий поток : 1871 Кбит/сек
    Программа кодирования : VirtualDubMod 1.5.10.2 (build 2540/release)
    Библиотека кодирования : VirtualDubMod build 2540/release
    Видео
    Идентификатор : 0
    Формат : MPEG-4 Visual
    Профиль формата : Advanced Simple@L5
    Параметр BVOP формата : 2
    Параметр QPel формата : Нет
    Параметр GMC формата : Без точки перехода
    Параметр матрицы формата : Default (MPEG)
    Идентификатор кодека : XVID
    Идентификатор кодека/Подсказка : XviD
    Продолжительность : 1 ч. 51 м.
    Битрейт : 1478 Кбит/сек
    Ширина : 720 пикселей
    Высота : 304 пикселя
    Соотношение сторон : 2,35:1
    Частота кадров : 23,976 (23976/1000) кадра/сек
    Цветовое пространство : YUV
    Субдискретизация насыщенности : 4:2:0
    Битовая глубина : 8 бит
    Тип развёртки : Прогрессивная
    Метод сжатия : С потерями
    Бит/(Пиксели*Кадры) : 0.282
    Размер потока : 1,15 Гбайт (79%)
    Библиотека кодирования : XviD 1.2.1 (UTC 2008-12-04)
    Аудио
    Идентификатор : 1
    Формат : AC-3
    Формат/Информация : Audio Coding 3
    Расширение режима : CM (complete main)
    Параметр Endianness формата : Big
    Идентификатор кодека : 2000
    Продолжительность : 1 ч. 51 м.
    Вид битрейта : Постоянный
    Битрейт : 384 Кбит/сек
    Каналы : 6 каналов
    Расположение каналов : Front: L C R, Side: L R, LFE
    Частота : 48,0 КГц
    Частота кадров : 31,250 кадров/сек (1536 spf)
    Метод сжатия : С потерями
    Размер потока : 307 Мбайт (21%)
    Выравнивание : Разделение по промежуткам
    Продолжительность промежутка : 42 мс. (1,00 видеокадр)
    Время предзагрузки промежутка : 500 мс.

    Скриншот c названием фильма

    Скриншоты

    Скачать .torrent

    Скачать торрент-файл бесплатно и на максимальной скорости!

    Как скачивать? · Что такое торрент? · Рейтинг и ограничения

    !ВНИМАНИЕ!
    Сайт не распространяет и не хранит электронные версии произведений, а занимается лишь лишь предоставлением доступа к создаваемому пользователями каталогу ссылок на торрент-файлы, которые содержат только списки хеш-сумм, убедительная просьба с жалобами обращаться напрямую к пользователю. Файлы для обмена на трекере предоставлены пользователями сайта, и администрация не несёт ответственности за их содержание. Просьба не заливать файлы, защищенные авторскими правами, а также файлы нелегального содержания!


    _________________
    [Профиль] [ЛС]
    Показать сообщения:    
    Ответить на тему

    Текущее время: Сегодня, в 13:02

    Часовой пояс: GMT + 2



    Вы не можете начинать темы
    Вы не можете отвечать на сообщения
    Вы не можете редактировать свои сообщения
    Вы не можете удалять свои сообщения
    Вы не можете голосовать в опросах
    Вы не можете прикреплять файлы к сообщениям
    Вы не можете скачивать файлы