BitTorrentTracker PerecTracker.org
BitTorrentTracker PerecTracker.org
    
Регистрация  ·  Вход
 
 · 
Забыли пароль?

  • Помогите вспомнить / The Blackout (Мэттью Хиш / Matthew Hish) [2013, США, Комедия, WEB-DLRip] MVO

    Ответить на тему
     
    Автор Сообщение

    Light

    Создавать темы 27-Июн-2016 15:50

           

    [Цитировать]

    Помогите вспомнить / The Blackout
    Страна: США
    Жанр: Комедия
    Год выпуска: 2013
    Продолжительность: 01:3:00
    Перевод: Любительский (многоголосый закадровый)
    Cубтитры: нет
    Оригинальная аудиодорожка: нет
    Режиссер: Мэттью Хиш / Matthew Hish
    В ролях: Майкл Грациадей, Скотт Роза, Адам Рид, Джон Джойс, Отем Федеричи, Мэттью Хиш, Дэвид Бэрри Грэй, Шанелль Уоркмэн, Шэйн Линч, Джеррел Ли
    Описание: Любите ли вы пятницу так, как ее любят простые американские парни? Поверьте, эти ребята заслужили звание настоящих королей вечеринок. Разбитные друзья с размахом отметили долгожданный пятничный вечер, который затянулся до утра понедельника. Правда, возникла одна проблема: ни один из весельчаков не может вспомнить события зажигательного уик-энда. Отчаявшись вспомнить хоть что-нибудь, друзья решают прибегнуть к старому проверенному методу – вернуться к тому месту и времени, откуда все начиналось. Вооружившись литрами спиртного и заручившись поддержкой подружек, молодые люди на свой страх и риск решают повторить безумные выходные.
    Сэмпл: http://multi-up.com/1107165
    Качество видео: WEB-DLRip / WEB-DL 720p
    Формат видео: AVI
    Видео: 688x384 (1.79:1), 25 fps, XviD build 65 ~1958 kbps avg, 0.30 bit/pixel
    Аудио: 48 kHz, AC3 Dolby Digital, 2/0 (L,R) ch, ~192 kbps

    Rip by Toriyal для Rutracker.org

    MediaInfo

    General
    Complete name : D:\Фильмы\The Blackout_2013_Toriyal_Rutracker.avi
    Format : AVI
    Format/Info : Audio Video Interleave
    File size : 1.44 GiB
    Duration : 1h 35mn
    Overall bit rate : 2 161 Kbps
    Writing application : VirtualDubMod 1.5.10.3 | www.virtualdub-fr.org || (build 2550/release)
    Writing library : VirtualDubMod build 2550/release
    Video
    ID : 0
    Format : MPEG-4 Visual
    Format profile : Advanced Simple@L5
    Format settings, BVOP : 2
    Format settings, QPel : No
    Format settings, GMC : No warppoints
    Format settings, Matrix : Custom
    Codec ID : XVID
    Codec ID/Hint : XviD
    Duration : 1h 35mn
    Bit rate : 1 959 Kbps
    Width : 688 pixels
    Height : 384 pixels
    Display aspect ratio : 16:9
    Frame rate : 25.000 fps
    Color space : YUV
    Chroma subsampling : 4:2:0
    Bit depth : 8 bits
    Scan type : Progressive
    Compression mode : Lossy
    Bits/(Pixel*Frame) : 0.297
    Stream size : 1.31 GiB (91%)
    Writing library : XviD 65
    Audio
    ID : 1
    Format : AC-3
    Format/Info : Audio Coding 3
    Mode extension : CM (complete main)
    Format settings, Endianness : Big
    Codec ID : 2000
    Duration : 1h 35mn
    Bit rate mode : Constant
    Bit rate : 192 Kbps
    Channel(s) : 2 channels
    Channel positions : Front: L R
    Sampling rate : 48.0 KHz
    Frame rate : 31.250 fps (1536 spf)
    Compression mode : Lossy
    Stream size : 131 MiB (9%)
    Alignment : Split accross interleaves
    Interleave, duration : 40 ms (1.00 video frame)
    Interleave, preload duratio : 500 ms

    Скриншоты


    Скачать .torrent

    Скачать торрент-файл бесплатно и на максимальной скорости!

    Как скачивать? · Что такое торрент? · Рейтинг и ограничения

    !ВНИМАНИЕ!
    Сайт не распространяет и не хранит электронные версии произведений, а занимается лишь лишь предоставлением доступа к создаваемому пользователями каталогу ссылок на торрент-файлы, которые содержат только списки хеш-сумм, убедительная просьба с жалобами обращаться напрямую к пользователю. Файлы для обмена на трекере предоставлены пользователями сайта, и администрация не несёт ответственности за их содержание. Просьба не заливать файлы, защищенные авторскими правами, а также файлы нелегального содержания!


    _________________
    [Профиль] [ЛС]
    Показать сообщения:    
    Ответить на тему

    Текущее время: Сегодня, в 20:40

    Часовой пояс: GMT + 2



    Вы не можете начинать темы
    Вы не можете отвечать на сообщения
    Вы не можете редактировать свои сообщения
    Вы не можете удалять свои сообщения
    Вы не можете голосовать в опросах
    Вы не можете прикреплять файлы к сообщениям
    Вы не можете скачивать файлы