BitTorrentTracker PerecTracker.org
BitTorrentTracker PerecTracker.org
    
Регистрация  ·  Вход
 
 · 
Забыли пароль?

  • Orange Caramel - Catallena [2014, KPop, BD Remux]

    Ответить на тему
     
    Автор Сообщение

    Columb

    Создавать темы 16-Мар-2014 08:46

           

    [Цитировать]

    Orange Caramel - Catallena-Жанр: KPop
    Продолжительность: 00:03:22
    Год выпуска: 2014
    Описание: Опять "Карамельки" нас сразили своим новым хитом из последнего только что вышедшего сингла. Все красочно и ярко, но все-же клип о горькой судьбе морских животных...-Взято с одного из закрытых сайтов.-Качество: BD Remux
    Контейнер: M2TS
    Видео кодек: MPEG2
    Аудио кодек: PCM
    Видео: MPEG2 Video 1920x1080 29.97fps 32000kbps
    Аудио: PCM (WAV), 1536kbps, 48000Hz, stereo (2ch)

    Отчёт MediaInfo / BDInfo

    GeneralID : 0 (0x0)Complete name : E:\Music\Klips\ORANGE CARAMEL-Catallena [MV 1080p].m2tsFormat : BDAVFormat/Info : Blu-ray VideoFile size : 759 MiBDuration : 3mn 22sOverall bit rate : 31.4 MbpsMaximum Overall bit rate : 48.0 Mbps
    VideoID : 4113 (0x1011)Menu ID : 1 (0x1)Format : MPEG VideoFormat version : Version 2Format profile : Main@HighFormat settings, BVOP : YesFormat settings, Matrix : DefaultFormat settings, GOP : M=3, N=15Codec ID : 2Duration : 3mn 22sBit rate mode : VariableBit rate : 28.6 MbpsMaximum bit rate : 32.0 MbpsWidth : 1 920 pixelsHeight : 1 080 pixelsDisplay aspect ratio : 16:9Frame rate : 29.970 fpsColor space : YUVChroma subsampling : 4:2:0Bit depth : 8 bitsScan type : InterlacedScan order : Top Field FirstCompression mode : LossyBits/(Pixel*Frame) : 0.460Stream size : 689 MiB (91%)
    AudioID : 4352 (0x1100)Menu ID : 1 (0x1)Format : PCMFormat settings, Endianness : BigFormat settings, Sign : SignedMuxing mode : Blu-rayCodec ID : 128Duration : 3mn 22sBit rate mode : ConstantBit rate : 1 536 KbpsChannel(s) : 2 channelsChannel positions : Front: L RSampling rate : 48.0 KHzBit depth : 16 bitsDelay relative to video : -67msStream size : 37.0 MiB (5%)

    Скриншоты

    Скачать .torrent

    Скачать торрент-файл бесплатно и на максимальной скорости!

    Как скачивать? · Что такое торрент? · Рейтинг и ограничения

    !ВНИМАНИЕ!
    Сайт не распространяет и не хранит электронные версии произведений, а занимается лишь лишь предоставлением доступа к создаваемому пользователями каталогу ссылок на торрент-файлы, которые содержат только списки хеш-сумм, убедительная просьба с жалобами обращаться напрямую к пользователю. Файлы для обмена на трекере предоставлены пользователями сайта, и администрация не несёт ответственности за их содержание. Просьба не заливать файлы, защищенные авторскими правами, а также файлы нелегального содержания!

    [Профиль] [ЛС]
    Показать сообщения:    
    Ответить на тему

    Текущее время: Сегодня, в 02:47

    Часовой пояс: GMT + 2



    Вы не можете начинать темы
    Вы не можете отвечать на сообщения
    Вы не можете редактировать свои сообщения
    Вы не можете удалять свои сообщения
    Вы не можете голосовать в опросах
    Вы не можете прикреплять файлы к сообщениям
    Вы не можете скачивать файлы