Register  ·  Log in
Forgot password?

  • Orange Caramel - Catallena [2014, KPop, BD Remux]

    Reply to topic
    Author Message


    Post 16-Mar-2014 09:46



    Orange Caramel - Catallena-Жанр: KPop
    Продолжительность: 00:03:22
    Год выпуска: 2014
    Описание: Опять "Карамельки" нас сразили своим новым хитом из последнего только что вышедшего сингла. Все красочно и ярко, но все-же клип о горькой судьбе морских животных...-Взято с одного из закрытых сайтов.-Качество: BD Remux
    Контейнер: M2TS
    Видео кодек: MPEG2
    Аудио кодек: PCM
    Видео: MPEG2 Video 1920x1080 29.97fps 32000kbps
    Аудио: PCM (WAV), 1536kbps, 48000Hz, stereo (2ch)

    Отчёт MediaInfo / BDInfo

    GeneralID : 0 (0x0)Complete name : E:\Music\Klips\ORANGE CARAMEL-Catallena [MV 1080p].m2tsFormat : BDAVFormat/Info : Blu-ray VideoFile size : 759 MiBDuration : 3mn 22sOverall bit rate : 31.4 MbpsMaximum Overall bit rate : 48.0 Mbps
    VideoID : 4113 (0x1011)Menu ID : 1 (0x1)Format : MPEG VideoFormat version : Version 2Format profile : Main@HighFormat settings, BVOP : YesFormat settings, Matrix : DefaultFormat settings, GOP : M=3, N=15Codec ID : 2Duration : 3mn 22sBit rate mode : VariableBit rate : 28.6 MbpsMaximum bit rate : 32.0 MbpsWidth : 1 920 pixelsHeight : 1 080 pixelsDisplay aspect ratio : 16:9Frame rate : 29.970 fpsColor space : YUVChroma subsampling : 4:2:0Bit depth : 8 bitsScan type : InterlacedScan order : Top Field FirstCompression mode : LossyBits/(Pixel*Frame) : 0.460Stream size : 689 MiB (91%)
    AudioID : 4352 (0x1100)Menu ID : 1 (0x1)Format : PCMFormat settings, Endianness : BigFormat settings, Sign : SignedMuxing mode : Blu-rayCodec ID : 128Duration : 3mn 22sBit rate mode : ConstantBit rate : 1 536 KbpsChannel(s) : 2 channelsChannel positions : Front: L RSampling rate : 48.0 KHzBit depth : 16 bitsDelay relative to video : -67msStream size : 37.0 MiB (5%)


    Download .torrent

    Download free and at maximum speed!

    How to Download? · What is a torrent? · Ratings and Limitations

    The site does not extend and does not store electronic(digital) versions of products, and only gives access to a reference catalogue created by users on torrent-files which contain only lists of the hash-sums, the earnest entreaty, with complaints(abuse) to access directly to the user. Files for an exchange on tracker are given by users of a site, and the administration does not bear the responsibility for their maintenance. The request to not fill in the files protected by copyrights, and also files of the illegal maintenance!

    [Profile] [PM]
    Display posts from previous:    
    Reply to topic

    The time now is: Today 08:04

    All times are GMT + 3 Hours

    You cannot post new topics in this forum
    You cannot reply to topics in this forum
    You cannot edit your posts in this forum
    You cannot delete your posts in this forum
    You cannot vote in polls in this forum
    You cannot attach files in this forum
    You cannot download files in this forum