BitTorrentTracker PerecTracker.org
BitTorrentTracker PerecTracker.org
    
Регистрация  ·  Вход
 
 · 
Забыли пароль?

  • Марсианин / The Martian (Ридли Скотт / Ridley Scott) [2015, США, Великобритания, фантастика, приключения, BDRip] [Расширенная версия / Extended Cut] Dub + DVO (в местах без дубляжа)

    Ответить на тему
     
    Автор Сообщение

    Light

    Создавать темы 26-Июн-2016 19:25

           

    [Цитировать]

    Марсианин / The Martian
    Страна: США, Великобритания
    Жанр: Фантастика, приключения
    Год выпуска: 2015
    Продолжительность: 02:31:20
    Перевод: Профессиональный (дублированный) + DVO Omskbird records в местах без дубляжа
    Cубтитры: нет
    Режиссер: Ридли Скотт / Ridley Scott
    В ролях: Мэтт Дэймон, Джессика Честейн, Кристен Уиг, Кейт Мара, Майкл Пенья, Джефф Дэниэлс, Шон Бин, Маккензи Дэвис, Себастьян Стэн, Дональд Гловер, Чьюител Эджиофор, Наоми Скотт, Аксель Хенни, Джонатан Арис, Николетта Барабаш, и др.
    Описание: После сильнейшей песчаной бури на Марсе, коллеги американского космонавта Марка Уотни, посчитали его погибшим и покинули красную планету. Но Уотни выжил и оказался совсем один. Марк не падает духом, он проявляет все свои изобретательские и рационализаторские способности, чтобы понавыдумывать способов сообщить на Землю о своём бедственном положении... Теперь за миллионы километров от Марса, международные сотрудники космических служб и агенств, и лучшие учёные умы из разных стран мира, прилагают невероятные усилия, чтобы вернуть "марсианина" домой, а члены его экипажа организовывают экспедицию на Марс со спасительной миссией. И вот, весь мир затаив дыхание, следит за процедурой возвращением Уотни на родную матушку-землю...
    Сэмпл: http://multi-up.com/1107304
    Качество видео: BDRip [THE_MARTIAN_EXTENDED_REMUX_HDCLUB]
    Формат видео: AVI
    Видео: 720x304 (2.37:1), 23.976 fps, XviD build 73 ~1180 kbps avg, 0.23 bit/pixel
    Аудио: 48 kHz, AC3 Dolby Digital, 2/0 (L,R) ch, ~192 kbps

    MediaInfo

    Формат : AVI
    Формат/Информация : Audio Video Interleave
    Размер файла : 1,46 Гбайт
    Продолжительность : 2 ч. 31 м.
    Общий поток : 1382 Кбит/сек
    Программа кодирования : VirtualDubMod 1.5.10.3 | www.virtualdub-fr.org || (build 2550/release)
    Библиотека кодирования : VirtualDubMod build 2550/release
    Видео
    Идентификатор : 0
    Формат : MPEG-4 Visual
    Профиль формата : Advanced Simple@L5
    Параметр BVOP формата : 1
    Параметр QPel формата : Нет
    Параметр GMC формата : Без точки перехода
    Параметр матрицы формата : Выборочная
    Идентификатор кодека : XVID
    Идентификатор кодека/Подсказка : XviD
    Продолжительность : 2 ч. 31 м.
    Битрейт : 1181 Кбит/сек
    Ширина : 720 пикселей
    Высота : 304 пикселя
    Соотношение сторон : 2,35:1
    Частота кадров : 23,976 (23976/1000) кадра/сек
    Цветовое пространство : YUV
    Субдискретизация насыщенности : 4:2:0
    Битовая глубина : 8 бит
    Тип развёртки : Прогрессивная
    Метод сжатия : С потерями
    Бит/(Пиксели*Кадры) : 0.225
    Размер потока : 1,25 Гбайт (85%)
    Библиотека кодирования : XviD 73
    Аудио
    Идентификатор : 1
    Формат : AC-3
    Формат/Информация : Audio Coding 3
    Расширение режима : CM (complete main)
    Параметр Endianness формата : Big
    Идентификатор кодека : 2000
    Продолжительность : 2 ч. 31 м.
    Вид битрейта : Постоянный
    Битрейт : 192 Кбит/сек
    Каналы : 2 канала
    Расположение каналов : Front: L R
    Частота : 48,0 КГц
    Частота кадров : 31,250 кадров/сек (1536 spf)
    Метод сжатия : С потерями
    Размер потока : 208 Мбайт (14%)
    Выравнивание : Разделение по промежуткам
    Продолжительность промежутка : 42 мс. (1,00 видеокадр)
    Время предзагрузки промежутка : 500 мс.

    Скриншоты

    Скачать .torrent

    Скачать торрент-файл бесплатно и на максимальной скорости!

    Как скачивать? · Что такое торрент? · Рейтинг и ограничения

    !ВНИМАНИЕ!
    Сайт не распространяет и не хранит электронные версии произведений, а занимается лишь лишь предоставлением доступа к создаваемому пользователями каталогу ссылок на торрент-файлы, которые содержат только списки хеш-сумм, убедительная просьба с жалобами обращаться напрямую к пользователю. Файлы для обмена на трекере предоставлены пользователями сайта, и администрация не несёт ответственности за их содержание. Просьба не заливать файлы, защищенные авторскими правами, а также файлы нелегального содержания!


    _________________
    [Профиль] [ЛС]
    Показать сообщения:    
    Ответить на тему

    Текущее время: Сегодня, в 14:56

    Часовой пояс: GMT + 2



    Вы не можете начинать темы
    Вы не можете отвечать на сообщения
    Вы не можете редактировать свои сообщения
    Вы не можете удалять свои сообщения
    Вы не можете голосовать в опросах
    Вы не можете прикреплять файлы к сообщениям
    Вы не можете скачивать файлы