BitTorrentTracker PerecTracker.org
BitTorrentTracker PerecTracker.org
    
Регистрация  ·  Вход
 
 · 
Забыли пароль?

  • Убей меня трижды / Kill me three times (Крив Стендерс / Kriv Stenders) [2014, Австралия, США, чёрная комедия, HDRip-AVC] MVO (Первый канал)

    Ответить на тему
     
    Автор Сообщение

    Light

    Создавать темы 26-Июн-2016 19:25

           

    [Цитировать]

    Убей меня трижды
    Kill me three times

    Страна: Австралия, США
    Жанр: чёрная комедия
    Год выпуска: 2014
    Продолжительность: 01:30:22-Перевод: Профессиональный (многоголосый закадровый) Первый канал
    Cубтитры: нет
    Оригинальная аудиодорожка: нет-Режиссер: Крив Стендерс / Kriv Stenders
    В ролях: Саймон Пегг, Брайан Браун, Тереза Палмер, Элис Брага, Каллан Мулвей, Салливан Степлтон, Люк Хемсворт, Стив Ле Марканд-Описание: Тихий австралийский городок. Владелец бара на побережье Джек Тейлор подозревает свою жену Элис в измене. Он нанимает крутого профессионала Чарли Вульфа добыть доказательства её измены и, когда тот это делает, даёт ему новое задание — убить изменщицу! Вульф выезжает на дело и с удивлением обнаруживает, что за его киллерскую работу принялась чета местных дантистов Уэбб . Вместо положенного лечения, стоматолог и его жена усыпляют пациентку, кладут в багажник машины и увозят в неизвестном направлении. Ошарашенный такой наглостью Вульф решает разобраться в ситуации...-Доп. информация:
    О переводе: Перевод на трекере появляется впервые
    Качество: IPTV (Первый канал)
    Запись и синхронизация: mister55555-Сэмпл: минута47сек-Качество видео: HDRip (спасибо StarbirS с рутора)
    Формат видео: MKV
    Видео: AVC, 1024х424, 2,40:1, 23,976 кадра/сек, 1990 Кбит/сек
    Аудио: AC-3, 48,0 КГц, 192 Кбит/сек, 2 канала (многоголосый Первый канал)

    MediaInfo

    Общее
    Уникальный идентификатор : 175771229084128881530558707656561079504 (0x843C4EAE31A04826BB7A7BF0DC4534D0)
    Полное имя : Убей меня трижды.2014.HDRip.mkv
    Формат : Matroska
    Версия формата : Version 2
    Размер файла : 1,38 Гбайт
    Продолжительность : 1 ч. 30 м.
    Общий поток : 2182 Кбит/сек
    Название фильма : Убей меня трижды / Kill me three times / 2014
    Дата кодирования : UTC 2016-06-25 11:51:19
    Программа кодирования : mkvmerge v8.3.0 ('Over the Horizon') 32bit
    Библиотека кодирования : libebml v1.3.1 + libmatroska v1.4.2
    Видео
    Идентификатор : 1
    Формат : AVC
    Формат/Информация : Advanced Video Codec
    Профиль формата : High@L4.1
    Параметр CABAC формата : Да
    Параметр ReFrames формата : 11 кадров
    Идентификатор кодека : V_MPEG4/ISO/AVC
    Продолжительность : 1 ч. 30 м.
    Битрейт : 1990 Кбит/сек
    Ширина : 1024 пикселя
    Высота : 424 пикселя
    Соотношение сторон : 2,40:1
    Режим частоты кадров : Постоянный
    Частота кадров : 23,976 (24000/1001) кадра/сек
    Цветовое пространство : YUV
    Субдискретизация насыщенности : 4:2:0
    Битовая глубина : 8 бит
    Тип развёртки : Прогрессивная
    Бит/(Пиксели*Кадры) : 0.191
    Размер потока : 1,23 Гбайт (89%)
    Заголовок : Убей меня трижды / Kill me three times / 2014
    Библиотека кодирования : x264 core 146 r2538 121396c
    Настройки программы : cabac=1 / ref=11 / deblock=1:-3:-3 / analyse=0x3:0x113 / me=umh / subme=11 / psy=1 / psy_rd=1.05:0.05 / mixed_ref=1 / me_range=32 / chroma_me=1 / trellis=2 / 8x8dct=1 / cqm=0 / deadzone=21,11 / fast_pskip=0 / chroma_qp_offset=-3 / threads=12 / lookahead_threads=4 / sliced_threads=0 / nr=0 / decimate=0 / interlaced=0 / bluray_compat=0 / constrained_intra=0 / bframes=8 / b_pyramid=2 / b_adapt=2 / b_bias=0 / direct=3 / weightb=1 / open_gop=1 / weightp=2 / keyint=240 / keyint_min=23 / scenecut=40 / intra_refresh=0 / rc=2pass / mbtree=0 / bitrate=1990 / ratetol=1.0 / qcomp=0.70 / qpmin=0 / qpmax=69 / qpstep=4 / cplxblur=20.0 / qblur=0.5 / ip_ratio=1.40 / pb_ratio=1.30 / aq=1:0.80
    Язык : English
    Default : Да
    Forced : Нет
    Аудио
    Идентификатор : 2
    Формат : AC-3
    Формат/Информация : Audio Coding 3
    Расширение режима : CM (complete main)
    Параметр Endianness формата : Big
    Идентификатор кодека : A_AC3
    Продолжительность : 1 ч. 30 м.
    Вид битрейта : Постоянный
    Битрейт : 192 Кбит/сек
    Каналы : 2 канала
    Расположение каналов : Front: L R
    Частота : 48,0 КГц
    Частота кадров : 31,250 кадров/сек (1536 spf)
    Метод сжатия : С потерями
    Размер потока : 124 Мбайт (9%)
    Заголовок : многоголосый Первый канал
    Язык : Russian
    Default : Да
    Forced : Нет
    Меню
    00:00:00.000 : en:00:00:00.000
    00:07:29.366 : en:00:07:29.366
    00:13:41.571 : en:00:13:41.571
    00:23:19.732 : en:00:23:19.732
    00:30:45.385 : en:00:30:45.385
    00:35:43.850 : en:00:35:43.850
    00:44:16.863 : en:00:44:16.863
    00:49:52.364 : en:00:49:52.364
    00:57:46.546 : en:00:57:46.546
    01:02:43.760 : en:01:02:43.760
    01:12:23.297 : en:01:12:23.297
    01:23:49.024 : en:01:23:49.024

    Скриншот c названием фильма

    Скриншоты

    Скачать .torrent

    Скачать торрент-файл бесплатно и на максимальной скорости!

    Как скачивать? · Что такое торрент? · Рейтинг и ограничения

    !ВНИМАНИЕ!
    Сайт не распространяет и не хранит электронные версии произведений, а занимается лишь лишь предоставлением доступа к создаваемому пользователями каталогу ссылок на торрент-файлы, которые содержат только списки хеш-сумм, убедительная просьба с жалобами обращаться напрямую к пользователю. Файлы для обмена на трекере предоставлены пользователями сайта, и администрация не несёт ответственности за их содержание. Просьба не заливать файлы, защищенные авторскими правами, а также файлы нелегального содержания!


    _________________
    [Профиль] [ЛС]
    Показать сообщения:    
    Ответить на тему

    Текущее время: Сегодня, в 04:18

    Часовой пояс: GMT + 2



    Вы не можете начинать темы
    Вы не можете отвечать на сообщения
    Вы не можете редактировать свои сообщения
    Вы не можете удалять свои сообщения
    Вы не можете голосовать в опросах
    Вы не можете прикреплять файлы к сообщениям
    Вы не можете скачивать файлы