BitTorrentTracker PerecTracker.org
BitTorrentTracker PerecTracker.org
    
Регистрация  ·  Вход
 
 · 
Забыли пароль?

  • [ATV3] Лунный флаг / Atrapa la bandera (Энрике Гато / Enrique Gato) [2015, Испания, Мультфильм, комедия, приключения, BDRip, HD (1080p)] DUB + Original + sub (rus, eng)

    Ответить на тему
     
    Автор Сообщение

    Flirldrerve

    Создавать темы 26-Июн-2016 15:20

           

    [Цитировать]

    Лунный флаг / Atrapa la bandera
    -
    5.866 / 10 5.90 / 10
    -Год выпуска: 2015
    Страна: Испания
    Жанр: Мультфильм, комедия, приключения
    Продолжительность: 01:34:32
    Перевод: Дублированный (iTunes)
    Оригинальная аудиодорожка: Есть
    Cубтитры: Русские, Английские, Английские SDH
    Режиссёр: Энрике Гато
    Сценарий: Пачи Амескуа, Хорди Гасуль, Нил Ландау
    Продюсер: Альваро Аугустин, Жислен Баруа, Хорди Гасуль
    Композитор: Диего Наварро
    Монтаж: Александр Адам
    В ролях: Дэни Ровира, Мишель Хеннер, Карме Калвелл, Хавьер Балас, Камилло Гарсия, Тони Мора, Марта Барбара, Фернандо Гарсия Кабрера, Ксавьер Касан, Ориол Тарраго
    Бюджет: €12 500 000
    Сборы в США: $6 690
    Сборы в мире: + $8 300 000 = $8 306 690
    Сборы в России: $427 991
    Мировая премьера: 28 августа 2015
    Премьера (РФ): 24 марта 2016, «Централ Партнершип»
    Релиз на DVD: 4 июля 2016, «Новый Диск»
    Релиз на Blu-Ray: 4 июля 2016, «Новый Диск»
    Описание: 12-летний Майк вместе со своими друзьями пытается спасти Луну от захвата злобным миллиардером Карсоном. Но для этого надо всего лишь… полететь в космос. Удастся ли обыкновенным подросткам пробраться на космическую базу, прилуниться и победить коварного злодея? Для этого понадобится помощь друзей, верной домашней ящерицы и родного деда. Большое космическое приключение, объединившее всю семью, начинается!-Качество исходника: BDRemux (HDClub)
    Качество: BDRip
    Тип: HD (1080p)
    Контейнер: M4V
    Видео: H.264, 1920x800, 2.40:1, 6 500 Kbps, 23.976 (24000/1001) fps
    Аудио 1: Русский/Дублированный (iTunes), AAC / 2.0 / 157 Kbps / 48.0 KHz
    Аудио 2: Английский/Дублированный , AAC / 2.0 / 158 Kbps / 48.0 KHz
    Аудио 3: Испанский/Оригинальная дорожка , AAC / 2.0 / 158 Kbps / 48.0 KHz
    Аудио 4: Русский/Дублированный (iTunes), AC-3 / 5.1 / 384 Kbps / 48.0 KHz
    Аудио 5: Английский/Дублированный , AC-3 / 5.1 / 640 Kbps / 48.0 KHz
    Аудио 6: Испанский/Оригинальная дорожка , AC-3 / 5.1 / 640 Kbps / 48.0 KHz
    Субтитры 1: Русские полные
    Субтитры 2: Английские полные
    Субтитры 3: Английские SDH
    -

    iTunes Meta Tags

    Sort Name: ЛУННЫЙ ФЛАГ
    XID: Apple:vendor_id:2015-850270
    contentID: 1059911746
    Copyright: © 2015 Paramount Pictures. All Rights Reserved.
    Screenwriters: Пачи Амескуа, Хорди Гасуль, Нил Ландау
    Producers: Альваро Аугустин, Жислен Баруа, Хорди Гасуль
    Director: Энрике Гато
    Cast: Дэни Ровира, Мишель Хеннер, Карме Калвелл, Хавьер Балас, Камилло Гарсия, Тони Мора, Марта Барбара, Фернандо Гарсия Кабрера, Ксавьер Касан, Ориол Тарраго, Илья Хвостиков, Мария Борисова, Даниил Эльдаров
    Studio: Paramount
    Rating: 133
    Long Description: 12-летний Майк вместе со своими друзьями пытается спасти Луну от захвата злобным миллиардером Карсоном. Но для этого надо всего лишь... полететь в космос. Удастся ли обыкновенным подросткам пробраться на космическую базу, прилуниться и победить коварного злодея? Для этого понадобится помощь друзей, верной домашней ящерицы и родного деда. Большое космическое приключение, объединившее всю семью, начинается!
    Description: 12-летний Майк вместе со своими друзьями пытается спасти Луну от захвата злобным миллиардером Карсоном. Но для этого надо всего лишь... полететь в космос. Удастся ли обыкновенным подросткам пробраться на космическую базу, прилуниться и победить коварного злодея? Для этого понадобится помощь друзей, верной домашней ящерицы и родного деда. Большое космическое приключение, объединившее всю семью, начинается!
    Release Date: 2015-08-28T08:00:00Z
    Genre: Для всей семьи
    Artist: Enrique Gato
    Name: ЛУННЫЙ ФЛАГ

    MediaInfo

    General
    Complete name : /Users/imac/HandBrake/Capture the Flag (1080p HD).m4v
    Format : MPEG-4
    Codec ID : M4V  (M4V /M4A /mp42/isom)
    File size : 5.71 GiB
    Duration : 1h 34mn
    Overall bit rate mode : Variable
    Overall bit rate : 8 643 Kbps
    Movie name : ЛУННЫЙ ФЛАГ
    Performer : Enrique Gato
    Director : Энрике Гато
    Actor : Дэни Ровира / Мишель Хеннер / Карме Калвелл / Хавьер Балас / Камилло Гарсия / Тони Мора / Марта Барбара / Фернандо Гарсия Кабрера / Ксавьер Касан / Ориол Тарраго / Илья Хвостиков / Мария Борисова / Даниил Эльдаров
    Screenplay by : Пачи Амескуа / Хорди Гасуль / Нил Ландау
    Producer : Альваро Аугустин / Жислен Баруа / Хорди Гасуль
    Production studio : Paramount
    Genre : Для всей семьи
    ContentType : Short Film
    Description : 12-летний Майк вместе со своими друзьями пытается спасти Луну от захвата злобным миллиардером Карсоном. Но для этого надо всего лишь... полететь в космос. Удастся ли обыкновенным подросткам пробраться на космическую базу, прилуниться и победить коварного злодея? Для этого понадобится помощь друзей, верной домашней ящерицы и родного деда. Большое космическое приключение, объединившее всю семью, начинается!
    Recorded date : UTC 2015-08-28 08:00:00
    Encoded date : UTC 2016-06-26 10:56:26
    Tagged date : UTC 2016-06-26 11:00:18
    Copyright : © 2015 Paramount Pictures. All Rights Reserved.
    Cover : Yes
    Rating : None
    Title/Sort : ЛУННЫЙ ФЛАГ
    LongDescription : 12-летний Майк вместе со своими друзьями пытается спасти Луну от захвата злобным миллиардером Карсоном. Но для этого надо всего лишь... полететь в космос. Удастся ли обыкновенным подросткам пробраться на космическую базу, прилуниться и победить коварного злодея? Для этого понадобится помощь друзей, верной домашней ящерицы и родного деда. Большое космическое приключение, объединившее всю семью, начинается!
    AppleStoreCatalogID : 1059911746
    Vendor : Apple:vendor_id:2015-850270
    ContentRating : ru-movie|6+|150|
    Video #1
    ID : 1
    Format : AVC
    Format/Info : Advanced Video Codec
    Format profile : High@L4
    Format settings, CABAC : Yes
    Format settings, ReFrames : 4 frames
    Codec ID : avc1
    Codec ID/Info : Advanced Video Coding
    Duration : 1h 34mn
    Source duration : 1h 34mn
    Bit rate : 6 500 Kbps
    Width : 1 920 pixels
    Height : 800 pixels
    Display aspect ratio : 2.40:1
    Frame rate mode : Variable
    Frame rate : 23.976 (24000/1001) fps
    Minimum frame rate : 23.974 fps
    Maximum frame rate : 23.981 fps
    Color space : YUV
    Chroma subsampling : 4:2:0
    Bit depth : 8 bits
    Scan type : Progressive
    Bits/(Pixel*Frame) : 0.177
    Stream size : 4.29 GiB (75%)
    Source stream size : 4.29 GiB (75%)
    Title : Main Program
    Writing library : x264 core 142 r2479 dd79a61
    Encoding settings : cabac=1 / ref=4 / deblock=1:-2:-2 / analyse=0x3:0x133 / me=umh / subme=10 / psy=1 / psy_rd=1.00:0.15 / mixed_ref=1 / me_range=32 / chroma_me=1 / trellis=2 / 8x8dct=1 / cqm=0 / deadzone=21,11 / fast_pskip=0 / chroma_qp_offset=-3 / threads=36 / lookahead_threads=6 / sliced_threads=0 / nr=0 / decimate=0 / interlaced=0 / bluray_compat=0 / constrained_intra=0 / bframes=16 / b_pyramid=2 / b_adapt=2 / b_bias=0 / direct=3 / weightb=1 / open_gop=0 / weightp=2 / keyint=240 / keyint_min=24 / scenecut=40 / intra_refresh=0 / rc_lookahead=60 / rc=2pass / mbtree=1 / bitrate=6500 / ratetol=1.0 / qcomp=0.70 / qpmin=0 / qpmax=69 / qpstep=4 / cplxblur=20.0 / qblur=0.5 / vbv_maxrate=25000 / vbv_bufsize=25000 / nal_hrd=none / filler=0 / ip_ratio=1.40 / aq=1:1.00
    Language : English
    Encoded date : UTC 2016-06-26 10:56:26
    Tagged date : UTC 2016-06-26 10:56:42
    Color range : Limited
    Color primaries : BT.709
    Transfer characteristics : BT.709
    Matrix coefficients : BT.709
    Menus : 11,12
    Video #2
    ID : 12
    Format : JPEG
    Codec ID : jpeg
    Duration : 1h 34mn
    Bit rate mode : Variable
    Bit rate : 1 295 bps
    Width : 640 pixels
    Height : 266 pixels
    Display aspect ratio : 2.40:1
    Frame rate mode : Variable
    Frame rate : 0.004 fps
    Minimum frame rate : 0.002 fps
    Maximum frame rate : 0.139 fps
    Color space : YUV
    Chroma subsampling : 4:2:0
    Bit depth : 8 bits
    Compression mode : Lossy
    Bits/(Pixel*Frame) : 1.902
    Stream size : 791 KiB (0%)
    Title : Chapter Images
    Language : English
    Default : No
    Encoded date : UTC 2016-06-26 10:56:50
    Tagged date : UTC 2016-06-26 10:56:51
    Menu For : 1
    Audio #1
    ID : 2
    Format : AAC
    Format/Info : Advanced Audio Codec
    Format profile : LC
    Codec ID : 40
    Duration : 1h 34mn
    Bit rate mode : Variable
    Bit rate : 157 Kbps
    Maximum bit rate : 246 Kbps
    Channel(s) : 2 channels
    Channel positions : Front: L R
    Sampling rate : 48.0 KHz
    Frame rate : 46.875 fps (1024 spf)
    Compression mode : Lossy
    Stream size : 106 MiB (2%)
    Title : Russian Stereo
    Language : Russian
    Default : Yes
    Alternate group : 1
    Encoded date : UTC 2016-06-26 10:56:26
    Tagged date : UTC 2016-06-26 10:56:36
    Fallback From : 5
    Menus : 11
    Audio #2
    ID : 3
    Format : AAC
    Format/Info : Advanced Audio Codec
    Format profile : LC
    Codec ID : 40
    Duration : 1h 34mn
    Bit rate mode : Variable
    Bit rate : 158 Kbps
    Maximum bit rate : 265 Kbps
    Channel(s) : 2 channels
    Channel positions : Front: L R
    Sampling rate : 48.0 KHz
    Frame rate : 46.875 fps (1024 spf)
    Compression mode : Lossy
    Stream size : 107 MiB (2%)
    Title : English Stereo
    Language : English
    Default : No
    Alternate group : 1
    Encoded date : UTC 2016-06-26 10:56:26
    Tagged date : UTC 2016-06-26 10:56:36
    Fallback From : 6
    Audio #3
    ID : 4
    Format : AAC
    Format/Info : Advanced Audio Codec
    Format profile : LC
    Codec ID : 40
    Duration : 1h 34mn
    Bit rate mode : Variable
    Bit rate : 158 Kbps
    Maximum bit rate : 264 Kbps
    Channel(s) : 2 channels
    Channel positions : Front: L R
    Sampling rate : 48.0 KHz
    Frame rate : 46.875 fps (1024 spf)
    Compression mode : Lossy
    Stream size : 107 MiB (2%)
    Title : Spanish Stereo
    Language : Spanish
    Default : No
    Alternate group : 1
    Encoded date : UTC 2016-06-26 10:56:26
    Tagged date : UTC 2016-06-26 10:56:36
    Fallback From : 7
    Audio #4
    ID : 5
    Format : AC-3
    Format/Info : Audio Coding 3
    Mode extension : CM (complete main)
    Format settings, Endianness : Big
    Codec ID : ac-3
    Duration : 1h 34mn
    Bit rate mode : Constant
    Bit rate : 384 Kbps
    Channel(s) : 6 channels
    Channel positions : Front: L C R, Side: L R, LFE
    Sampling rate : 48.0 KHz
    Frame rate : 31.250 fps (1536 spf)
    Bit depth : 16 bits
    Compression mode : Lossy
    Stream size : 260 MiB (4%)
    Title : Russian DD 5.1
    Language : Russian
    Default : Inherited From: 2
    Alternate group : 1
    Encoded date : UTC 2016-06-26 10:56:26
    Tagged date : UTC 2016-06-26 10:56:34
    Fallback To : 2
    Audio #5
    ID : 6
    Format : AC-3
    Format/Info : Audio Coding 3
    Mode extension : CM (complete main)
    Format settings, Endianness : Big
    Codec ID : ac-3
    Duration : 1h 34mn
    Bit rate mode : Constant
    Bit rate : 640 Kbps
    Channel(s) : 6 channels
    Channel positions : Front: L C R, Side: L R, LFE
    Sampling rate : 48.0 KHz
    Frame rate : 31.250 fps (1536 spf)
    Bit depth : 16 bits
    Compression mode : Lossy
    Stream size : 433 MiB (7%)
    Title : English DD 5.1
    Language : English
    Default : No
    Alternate group : 1
    Encoded date : UTC 2016-06-26 10:56:26
    Tagged date : UTC 2016-06-26 10:56:34
    Fallback To : 3
    Audio #6
    ID : 7
    Format : AC-3
    Format/Info : Audio Coding 3
    Mode extension : CM (complete main)
    Format settings, Endianness : Big
    Codec ID : ac-3
    Duration : 1h 34mn
    Bit rate mode : Constant
    Bit rate : 640 Kbps
    Channel(s) : 6 channels
    Channel positions : Front: L C R, Side: L R, LFE
    Sampling rate : 48.0 KHz
    Frame rate : 31.250 fps (1536 spf)
    Bit depth : 16 bits
    Compression mode : Lossy
    Stream size : 433 MiB (7%)
    Title : Spanish DD 5.1
    Language : Spanish
    Default : No
    Alternate group : 1
    Encoded date : UTC 2016-06-26 10:56:26
    Tagged date : UTC 2016-06-26 10:56:34
    Fallback To : 4
    Text #1
    ID : 8
    Format : Timed Text
    Muxing mode : sbtl
    Codec ID : tx3g
    Duration : 1h 29mn
    Bit rate mode : Variable
    Bit rate : 103 bps
    Stream size : 67.2 KiB (0%)
    Title : Russian full
    Language : Russian
    Default : Yes
    Forced : No
    Alternate group : 2
    Encoded date : UTC 2016-06-26 10:56:26
    Tagged date : UTC 2016-06-26 10:56:26
    Text #2
    ID : 9
    Format : Timed Text
    Muxing mode : sbtl
    Codec ID : tx3g
    Duration : 1h 29mn
    Bit rate mode : Variable
    Bit rate : 64 bps
    Stream size : 42.0 KiB (0%)
    Title : English full
    Language : English
    Default : No
    Forced : No
    Alternate group : 2
    Encoded date : UTC 2016-06-26 10:56:26
    Tagged date : UTC 2016-06-26 10:56:26
    Text #3
    ID : 10
    Format : Timed Text
    Muxing mode : sbtl
    Codec ID : tx3g
    Duration : 1h 29mn
    Bit rate mode : Variable
    Bit rate : 73 bps
    Stream size : 47.8 KiB (0%)
    Title : English SDH
    Language : English
    Default : No
    Forced : No
    Alternate group : 2
    Encoded date : UTC 2016-06-26 10:56:26
    Tagged date : UTC 2016-06-26 10:56:26
    Menu #1
    00:00:00.000 : Chapter 1
    00:05:49.683 : Chapter 2
    00:07:41.586 : Chapter 3
    00:12:21.699 : Chapter 4
    00:15:45.903 : Chapter 5
    00:21:17.943 : Chapter 6
    00:26:53.278 : Chapter 7
    00:31:17.250 : Chapter 8
    00:40:15.330 : Chapter 9
    00:44:03.599 : Chapter 10
    00:49:21.542 : Chapter 11
    00:51:58.657 : Chapter 12
    00:58:52.946 : Chapter 13
    01:02:46.638 : Chapter 14
    01:06:00.456 : Chapter 15
    01:10:32.311 : Chapter 16
    01:16:27.500 : Chapter 17
    01:24:17.469 : Chapter 18
    01:26:24.513 : Chapter 19
    01:34:31.749 : Chapter 20
    Menu #2
    ID : 11
    Codec ID : text
    Duration : 1h 34mn
    Language : English
    Encoded date : UTC 2016-06-26 10:56:42
    Tagged date : UTC 2016-06-26 10:56:42
    Menu For : 2,1
    00:00:00.000 : Chapter 1
    00:05:49.683 : Chapter 2
    00:07:41.586 : Chapter 3
    00:12:21.699 : Chapter 4
    00:15:45.903 : Chapter 5
    00:21:17.943 : Chapter 6
    00:26:53.278 : Chapter 7
    00:31:17.250 : Chapter 8
    00:40:15.330 : Chapter 9
    00:44:03.599 : Chapter 10
    00:49:21.542 : Chapter 11
    00:51:58.657 : Chapter 12
    00:58:52.946 : Chapter 13
    01:02:46.638 : Chapter 14
    01:06:00.456 : Chapter 15
    01:10:32.311 : Chapter 16
    01:16:27.500 : Chapter 17
    01:24:17.469 : Chapter 18
    01:26:24.513 : Chapter 19
    01:34:31.749 : Chapter 20
    Bit rate mode : VBR

    x264 лог

    x264 [info]: frame I:1062  Avg QP:15.87  size:236642
    x264 [info]: frame P:39311 Avg QP:18.45  size: 60628
    x264 [info]: frame B:95786 Avg QP:19.34  size: 20621
    x264 [info]: consecutive B-frames:  7.3%  9.8% 14.0% 14.4% 13.2% 32.6%  5.1%  1.1%  0.8%  0.5%  0.5%  0.1%  0.1%  0.2%  0.1%  0.2%  0.0%
    x264 [info]: mb I  I16..4: 15.1% 68.6% 16.3%
    x264 [info]: mb P  I16..4:  2.5% 14.6%  1.7%  P16..4: 44.7% 20.6% 12.6%  0.4%  0.2%    skip: 2.7%
    x264 [info]: mb B  I16..4:  0.1%  1.5%  0.1%  B16..8: 43.0% 10.7%  2.1%  direct: 5.3%  skip:37.1%  L0:42.1% L1:46.9% BI:11.0%
    x264 [info]: 8x8 transform intra:77.8% inter:62.5%
    x264 [info]: direct mvs  spatial:93.4% temporal:6.6%
    x264 [info]: coded y,uvDC,uvAC intra: 86.7% 79.6% 52.2% inter: 22.1% 23.1% 8.7%
    x264 [info]: i16 v,h,dc,p:  9% 19% 16% 55%
    x264 [info]: i8 v,h,dc,ddl,ddr,vr,hd,vl,hu:  8% 14%  7% 10% 12% 11% 13% 11% 13%
    x264 [info]: i4 v,h,dc,ddl,ddr,vr,hd,vl,hu:  9% 13%  4% 10% 15% 13% 15% 10% 12%
    x264 [info]: i8c dc,h,v,p: 38% 29% 18% 16%
    x264 [info]: Weighted P-Frames: Y:1.9% UV:1.2%
    x264 [info]: ref P L0: 56.6%  8.9% 23.2%  9.2%  2.1%  0.0%
    x264 [info]: ref B L0: 82.9% 14.3%  2.8%
    x264 [info]: ref B L1: 91.0%  9.0%
    x264 [info]: kb/s:6494.01

    Скриншоты

    -

    Релиз подготовлен для просмотра на Apple TV, iPad, iPhone, iPod Touch.
    Для просмотра данного релиза на компьютере с ОС Windows рекомендуется использовать VLC media player
    Скачать .torrent

    Скачать торрент-файл бесплатно и на максимальной скорости!

    Как скачивать? · Что такое торрент? · Рейтинг и ограничения

    !ВНИМАНИЕ!
    Сайт не распространяет и не хранит электронные версии произведений, а занимается лишь лишь предоставлением доступа к создаваемому пользователями каталогу ссылок на торрент-файлы, которые содержат только списки хеш-сумм, убедительная просьба с жалобами обращаться напрямую к пользователю. Файлы для обмена на трекере предоставлены пользователями сайта, и администрация не несёт ответственности за их содержание. Просьба не заливать файлы, защищенные авторскими правами, а также файлы нелегального содержания!


    _________________
    [Профиль] [ЛС]
    Показать сообщения:    
    Ответить на тему

    Текущее время: Сегодня, в 22:49

    Часовой пояс: GMT + 2



    Вы не можете начинать темы
    Вы не можете отвечать на сообщения
    Вы не можете редактировать свои сообщения
    Вы не можете удалять свои сообщения
    Вы не можете голосовать в опросах
    Вы не можете прикреплять файлы к сообщениям
    Вы не можете скачивать файлы