BitTorrentTracker PerecTracker.org
BitTorrentTracker PerecTracker.org
    
Регистрация  ·  Вход
 
 · 
Забыли пароль?

  • Лунный флаг / Capture the Flag / Atrapa la bandera (Энрике Гато / Enrique Gato) [2015, Испания, мультфильм, комедия, приключения, BDRip-AVC] Dub (iTunes) + Original Eng + Sub Rus, Eng

    Ответить на тему
     
    Автор Сообщение

    Flirldrerve

    Создавать темы 25-Июн-2016 18:53

           

    [Цитировать]

    Лунный флаг / Capture the Flag / Atrapa la bandera
    Страна: Испания
    Жанр: мультфильм, комедия, приключения
    Продолжительность: 01:34:39
    Год выпуска: 2015
    Перевод: Профессиональный (дублированный) iTunes
    Русские субтитры: есть--Режиссёр: Энрике Гато / Enrique Gato--Роли озвучивали: Дэни Ровира, Мишель Хеннер, Карме Калвелл, Хавьер Балас, Камилло Гарсия, Тони Мора, Марта Барбара, Фернандо Гарсия Кабрера, Ксавьер Касан, Ориол Тарраго--Описание: 12-летний Майк вместе со своими друзьями пытается спасти Луну от захвата злобным миллиардером Карсоном. Но для этого надо всего лишь… полететь в космос. Удастся ли обыкновенным подросткам пробраться на космическую базу, прилуниться и победить коварного злодея? Для этого понадобится помощь друзей, верной домашней ящерицы и родного деда. Большое космическое приключение, объединившее всю семью, начинается!--Доп. информация: | IMDB | КиноПоиск | Сэмпл |

    --Качество: BDRip-AVC Лунный флаг / Capture the Flag / Atrapa la bandera (2015) 1080p BD-Remux HDClub
    Формат: MKV
    Видео: AVC, 1108x464, (2.40:1), 1820 kbps, 23.976 fps, 0.148 bit/pixel
    Аудио 1: AC3 Dolby Digital, 3/2 (L,C,R,l,r) + LFE ch, 48 kHz, 384 kbps | Дубляж |
    Аудио 2: AC3 Dolby Digital, 3/2 (L,C,R,l,r) + LFE ch, 48 kHz, 384 kbps | Original |
    Аудио 3: HE-AAC / LC, 2/0 (L,R) ch, 48 kHz, 72 kbps | Descriptivel |
    Субтитры: Русские, Английские, Английские (SDH)

    Скриншоты

    Подробные технические данные

    x264

    raw [info]: 1108x464p 1:1 @ 24000/1001 fps (cfr)
    x264 [info]: using SAR=1/1
    x264 [info]: using cpu capabilities: MMX2 SSE2Fast SSSE3 SSE4.2 AVX
    x264 [info]: profile High, level 4.1
    x264 [info]: frame I:1293 Avg QP:16.78 size: 64698
    x264 [info]: frame P:32221 Avg QP:19.11 size: 19670
    x264 [info]: frame B:102644 Avg QP:22.09 size: 5603
    x264 [info]: consecutive B-frames: 3.4% 3.4% 12.7% 24.3% 16.0% 25.2% 5.0% 3.6% 2.5% 1.0% 0.9% 0.9% 0.3% 0.3% 0.3% 0.2%
    x264 [info]: mb I I16..4: 8.8% 63.1% 28.1%
    x264 [info]: mb P I16..4: 1.8% 10.4% 2.5% P16..4: 41.2% 19.7% 15.1% 0.8% 0.3% skip: 8.3%
    x264 [info]: mb B I16..4: 0.1% 0.9% 0.2% B16..8: 38.8% 8.7% 2.4% direct: 3.6% skip:45.2% L0:41.3% L1:45.4% BI:13.2%
    x264 [info]: 8x8 transform intra:69.7% inter:64.5%
    x264 [info]: coded y,uvDC,uvAC intra: 80.9% 82.4% 59.6% inter: 14.6% 14.8% 4.5%
    x264 [info]: i16 v,h,dc,p: 11% 26% 7% 57%
    x264 [info]: i8 v,h,dc,ddl,ddr,vr,hd,vl,hu: 8% 16% 4% 9% 12% 11% 14% 11% 14%
    x264 [info]: i4 v,h,dc,ddl,ddr,vr,hd,vl,hu: 7% 15% 3% 10% 15% 12% 14% 10% 13%
    x264 [info]: i8c dc,h,v,p: 34% 31% 17% 17%
    x264 [info]: Weighted P-Frames: Y:3.1% UV:2.0%
    x264 [info]: ref P L0: 53.8% 10.1% 14.5% 5.8% 4.1% 3.3% 2.5% 1.5% 1.2% 1.1% 1.0% 1.0% 0.1% 0.0%
    x264 [info]: ref B L0: 77.2% 10.2% 5.0% 2.3% 1.7% 1.2% 1.0% 0.6% 0.5% 0.3% 0.2%
    x264 [info]: ref B L1: 93.9% 6.1%
    x264 [info]: kb/s:1820.88
    General
    Unique ID : 210158996857138090671752797893959015600 (0x9E1B268804594DC58C1C84D0A672DCB0)
    Complete name : Capture the Flag (2015).mkv
    Format : Matroska
    Format version : Version 4 / Version 2
    File size : 1.76 GiB
    Duration : 1h 34mn
    Overall bit rate : 2 662 Kbps
    Movie name : Лунный флаг / Capture the Flag / Atrapa la bandera (2015)
    Encoded date : UTC 2016-06-25 13:37:33
    Writing application : mkvmerge v8.1.0 ('Psychedelic Postcard') 64bit
    Writing library : libebml v1.3.1 + libmatroska v1.4.2
    Cover : Yes
    Attachments : cover.jpg
    Video
    ID : 1
    Format : AVC
    Format/Info : Advanced Video Codec
    Format profile : High@L4.1
    Format settings, CABAC : Yes
    Format settings, ReFrames : 12 frames
    Codec ID : V_MPEG4/ISO/AVC
    Duration : 1h 34mn
    Bit rate : 1 821 Kbps
    Width : 1 108 pixels
    Height : 464 pixels
    Display aspect ratio : 2.40:1
    Frame rate mode : Constant
    Frame rate : 23.976 (24000/1001) fps
    Color space : YUV
    Chroma subsampling : 4:2:0
    Bit depth : 8 bits
    Scan type : Progressive
    Bits/(Pixel*Frame) : 0.148
    Stream size : 1.20 GiB (68%)
    Title : Capture the Flag (2015) By optik.1557
    Writing library : x264 core 148 r2692kMod 64f4e24
    Encoding settings : cabac=1 / ref=12 / deblock=1:-2:-1 / analyse=0x3:0x133 / me=umh / subme=10 / psy=1 / fade_compensate=0.00 / psy_rd=1.05:0.03 / mixed_ref=1 / me_range=32 / chroma_me=1 / trellis=2 / 8x8dct=1 / cqm=0 / deadzone=21,11 / fast_pskip=0 / chroma_qp_offset=-3 / threads=6 / lookahead_threads=1 / sliced_threads=0 / nr=0 / decimate=1 / interlaced=0 / bluray_compat=0 / constrained_intra=0 / fgo=0 / bframes=15 / b_pyramid=2 / b_adapt=2 / b_bias=0 / direct=1 / weightb=1 / open_gop=0 / weightp=2 / keyint=250 / keyint_min=23 / scenecut=40 / intra_refresh=0 / rc_lookahead=60 / rc=crf / mbtree=0 / crf=18.2000 / qcomp=0.60 / qpmin=0 / qpmax=69 / qpstep=4 / vbv_maxrate=50000 / vbv_bufsize=62500 / crf_max=0.0 / nal_hrd=none / filler=0 / ip_ratio=1.40 / pb_ratio=1.30 / aq=2:0.90
    Language : English
    Default : Yes
    Forced : No
    Audio #1
    ID : 2
    Format : AC-3
    Format/Info : Audio Coding 3
    Mode extension : CM (complete main)
    Format settings, Endianness : Big
    Codec ID : A_AC3
    Duration : 1h 34mn
    Bit rate mode : Constant
    Bit rate : 384 Kbps
    Channel(s) : 6 channels
    Channel positions : Front: L C R, Side: L R, LFE
    Sampling rate : 48.0 KHz
    Frame rate : 31.250 fps (1536 spf)
    Compression mode : Lossy
    Stream size : 260 MiB (14%)
    Title : Дубляж
    Language : Russian
    Default : Yes
    Forced : No
    Audio #2
    ID : 3
    Format : AC-3
    Format/Info : Audio Coding 3
    Mode extension : CM (complete main)
    Format settings, Endianness : Big
    Codec ID : A_AC3
    Duration : 1h 34mn
    Bit rate mode : Constant
    Bit rate : 384 Kbps
    Channel(s) : 6 channels
    Channel positions : Front: L C R, Side: L R, LFE
    Sampling rate : 48.0 KHz
    Frame rate : 31.250 fps (1536 spf)
    Compression mode : Lossy
    Stream size : 260 MiB (14%)
    Title : Original
    Language : English
    Default : No
    Forced : No
    Audio #3
    ID : 4
    Format : AAC
    Format/Info : Advanced Audio Codec
    Format profile : HE-AAC / LC
    Codec ID : A_AAC
    Duration : 1h 34mn
    Bit rate : 72.0 Kbps
    Channel(s) : 2 channels
    Channel positions : Front: L R
    Sampling rate : 48.0 KHz / 24.0 KHz
    Frame rate : 23.438 fps (1024 spf)
    Compression mode : Lossy
    Stream size : 47.8 MiB (3%)
    Title : Descriptive
    Language : English
    Default : No
    Forced : No
    Text #1
    ID : 5
    Format : UTF-8
    Codec ID : S_TEXT/UTF8
    Codec ID/Info : UTF-8 Plain Text
    Duration : 1h 28mn
    Bit rate : 94 bps
    Count of elements : 1153
    Stream size : 61.5 KiB (0%)
    Language : Russian
    Default : No
    Forced : No
    Text #2
    ID : 6
    Format : UTF-8
    Codec ID : S_TEXT/UTF8
    Codec ID/Info : UTF-8 Plain Text
    Duration : 1h 28mn
    Bit rate : 55 bps
    Count of elements : 1186
    Stream size : 36.2 KiB (0%)
    Language : English
    Default : No
    Forced : No
    Text #3
    ID : 7
    Format : UTF-8
    Codec ID : S_TEXT/UTF8
    Codec ID/Info : UTF-8 Plain Text
    Duration : 1h 28mn
    Bit rate : 62 bps
    Count of elements : 1496
    Stream size : 40.5 KiB (0%)
    Title : SDH
    Language : English
    Default : No
    Forced : No
    Скачать .torrent

    Скачать торрент-файл бесплатно и на максимальной скорости!

    Как скачивать? · Что такое торрент? · Рейтинг и ограничения

    !ВНИМАНИЕ!
    Сайт не распространяет и не хранит электронные версии произведений, а занимается лишь лишь предоставлением доступа к создаваемому пользователями каталогу ссылок на торрент-файлы, которые содержат только списки хеш-сумм, убедительная просьба с жалобами обращаться напрямую к пользователю. Файлы для обмена на трекере предоставлены пользователями сайта, и администрация не несёт ответственности за их содержание. Просьба не заливать файлы, защищенные авторскими правами, а также файлы нелегального содержания!


    _________________
    [Профиль] [ЛС]
    Показать сообщения:    
    Ответить на тему

    Текущее время: Сегодня, в 09:04

    Часовой пояс: GMT + 2



    Вы не можете начинать темы
    Вы не можете отвечать на сообщения
    Вы не можете редактировать свои сообщения
    Вы не можете удалять свои сообщения
    Вы не можете голосовать в опросах
    Вы не можете прикреплять файлы к сообщениям
    Вы не можете скачивать файлы