BitTorrentTracker PerecTracker.org
BitTorrentTracker PerecTracker.org
    
Регистрация  ·  Вход
 
 · 
Забыли пароль?

  • Белоснежка и Охотник / Snow White and the Huntsman (Руперт Сандерс / Rupert Sanders) [2012, США, фэнтези, боевик, драма, приключения, BDRip-AVC] [Расширенная версия / EXTENDED] Dub + Sub Rus + Original Eng

    Ответить на тему
     
    Автор Сообщение

    Light

    Создавать темы 25-Июн-2016 18:53

           

    [Цитировать]

    Белоснежка и Охотник / Snow White and the Huntsman / Расширенная версия / EXTENDED
    Страна: США
    Жанр: фэнтези, боевик, драма, приключения
    Год выпуска: 2012
    Продолжительность: 02:11:34-Перевод: Профессиональный (дублированный)
    Cубтитры: русские
    Оригинальная аудиодорожка: английский-Режиссер: Руперт Сандерс / Rupert Sanders-В ролях: Кристен Стюарт, Крис Хемсворт, Шарлиз Терон, Сэм Клафлин, Сэм Спруэлл, Йен МакШейн, Боб Хоскинс, Рэй Уинстон, Ник Фрост, Эдди Марсан-Описание: Тьма приближается. Она прячется в лесах, спускается с гор, застилает небо. Никто не укроется от магического зеркала Королевы, живущей в неприступном замке, охраняемом бесчисленной армией. Но над Белоснежкой злые чары не властны. И тогда Королева отправляет Охотника, чтобы он принес ей сердце соперницы. Но очарованный Белоснежкой, он встает на ее сторону. Грядет великая битва. Лишь одна будет править.-Сэмпл: http://sendfile.su/1245057-Качество видео: BDRip-AVC
    Качество: BDRip-AVC (исходник: Belosnegka.i.ohotnik.2012.MPEG-4-AVC.BluRay-Remux(1080p))
    Формат видео: MKV
    Видео: MPEG4/AVC, 1152x496, 2.35:1, 23.976 (24000/1001) fps, 2767 Kbps
    Аудио 1: AC-3, 48.0 KHz, 192 Kbps, 2 channels | дубляж
    Аудио 2: AC-3, 48.0 KHz, 192 Kbps, 2 channels | оригинал
    Формат субтитров: softsub (SRT)

    MediaInfo

    Формат : Matroska
    Версия формата : Version 2
    Размер файла : 2,90 Гбайт
    Продолжительность : 2 ч. 11 м.
    Общий поток : 3152 Кбит/сек
    Дата кодирования : UTC 2016-06-23 18:53:37
    Программа кодирования : mkvmerge v7.6.0 ('Garden of Dreams') 32bit built on Feb 11 2015 00:18:47
    Библиотека кодирования : libebml v1.3.1 + libmatroska v1.4.2
    Видео
    Идентификатор : 1
    Формат : AVC
    Формат/Информация : Advanced Video Codec
    Профиль формата : High@L4.1
    Параметр CABAC формата : Да
    Параметр ReFrames формата : 12 кадров
    Идентификатор кодека : V_MPEG4/ISO/AVC
    Продолжительность : 2 ч. 11 м.
    Битрейт : 2767 Кбит/сек
    Ширина : 1152 пикселя
    Высота : 496 пикселей
    Соотношение сторон : 2,35:1
    Режим частоты кадров : Постоянный
    Частота кадров : 23,976 (24000/1001) кадра/сек
    Цветовое пространство : YUV
    Субдискретизация насыщенности : 4:2:0
    Битовая глубина : 8 бит
    Тип развёртки : Прогрессивная
    Бит/(Пиксели*Кадры) : 0.202
    Размер потока : 2,49 Гбайт (86%)
    Библиотека кодирования : x264 core 148 r2638 7599210
    Настройки программы : cabac=1 / ref=12 / deblock=1:-3:-3 / analyse=0x3:0x113 / me=umh / subme=9 / psy=1 / psy_rd=0.90:0.00 / mixed_ref=1 / me_range=32 / chroma_me=1 / trellis=2 / 8x8dct=1 / cqm=0 / deadzone=21,11 / fast_pskip=0 / chroma_qp_offset=-2 / threads=6 / lookahead_threads=1 / sliced_threads=0 / nr=0 / decimate=1 / interlaced=0 / bluray_compat=0 / constrained_intra=0 / bframes=9 / b_pyramid=2 / b_adapt=2 / b_bias=0 / direct=3 / weightb=1 / open_gop=0 / weightp=2 / keyint=240 / keyint_min=23 / scenecut=40 / intra_refresh=0 / rc_lookahead=50 / rc=2pass / mbtree=0 / bitrate=2767 / ratetol=1.0 / qcomp=0.60 / qpmin=0 / qpmax=69 / qpstep=4 / cplxblur=20.0 / qblur=0.5 / vbv_maxrate=62500 / vbv_bufsize=78125 / nal_hrd=none / filler=0 / ip_ratio=1.40 / pb_ratio=1.30 / aq=2:1.00
    Default : Да
    Forced : Нет
    Statistics Tags Issue : mkvmerge v8.5.2 ('Crosses') 32bit 2016-06-23 08:48:41 / mkvmerge v7.6.0 ('Garden of Dreams') 32bit built on Feb 11 2015 00:18:47 2016-06-23 18:53:37
    FromStats_BitRate : 2765820
    FromStats_Duration : 02:11:33.677000000
    FromStats_FrameCount : 189259
    FromStats_StreamSize : 2729061412
    Аудио #1
    Идентификатор : 2
    Формат : AC-3
    Формат/Информация : Audio Coding 3
    Расширение режима : CM (complete main)
    Параметр Endianness формата : Big
    Идентификатор кодека : A_AC3
    Продолжительность : 2 ч. 11 м.
    Вид битрейта : Постоянный
    Битрейт : 192 Кбит/сек
    Каналы : 2 канала
    Расположение каналов : Front: L R
    Частота : 48,0 КГц
    Частота кадров : 31,250 кадров/сек (1536 spf)
    Метод сжатия : С потерями
    Размер потока : 181 Мбайт (6%)
    Заголовок : дубляж
    Язык : Russian
    Default : Да
    Forced : Нет
    Аудио #2
    Идентификатор : 3
    Формат : AC-3
    Формат/Информация : Audio Coding 3
    Расширение режима : CM (complete main)
    Параметр Endianness формата : Big
    Идентификатор кодека : A_AC3
    Продолжительность : 2 ч. 11 м.
    Вид битрейта : Постоянный
    Битрейт : 192 Кбит/сек
    Каналы : 2 канала
    Расположение каналов : Front: L R
    Частота : 48,0 КГц
    Частота кадров : 31,250 кадров/сек (1536 spf)
    Метод сжатия : С потерями
    Размер потока : 181 Мбайт (6%)
    Заголовок : оригинал
    Язык : English
    Default : Нет
    Forced : Нет
    Текст
    Идентификатор : 4
    Формат : UTF-8
    Идентификатор кодека : S_TEXT/UTF8
    Идентификатор кодека/Информация : UTF-8 Plain Text
    Заголовок : русские
    Язык : Russian
    Default : Нет
    Forced : Нет

    Скриншот c названием фильма

    Скриншоты





    log 2 pass

    ---[Information] [22.06.2016 16:01:35] raw [info]: 1152x496p 1:1 @ 24000/1001 fps (cfr)
    ---[Information] [22.06.2016 16:01:35] x264 [info]: profile High, level 4.1
    ---[Information] [23.06.2016 11:48:32] x264 [info]: frame I:1777 Avg QP:14.95 size: 97226
    ---[Information] [23.06.2016 11:48:32] x264 [info]: frame P:44148 Avg QP:17.87 size: 27322
    ---[Information] [23.06.2016 11:48:32] x264 [info]: frame B:143334 Avg QP:19.70 size: 9419
    ---[Information] [23.06.2016 11:48:32] x264 [info]: consecutive B-frames: 3.4% 4.8% 10.0% 17.3% 17.2% 34.8% 6.4% 1.8% 2.3% 2.0%
    ---[Information] [23.06.2016 11:48:32] x264 [info]: ref P L0: 49.1% 10.8% 16.3% 5.9% 4.8% 3.3% 2.9% 1.6% 1.5% 1.2% 1.2% 1.1% 0.3% 0.0%
    ---[Information] [23.06.2016 11:48:32] x264 [info]: ref B L0: 73.3% 12.1% 5.4% 2.7% 1.9% 1.5% 1.1% 0.7% 0.6% 0.4% 0.2%
    ---[Information] [23.06.2016 11:48:32] x264 [info]: ref B L1: 92.5% 7.5%
    ---[Information] [23.06.2016 11:48:32] x264 [info]: kb/s:2765.82
    --[Information] [23.06.2016 11:48:35] Final statistics
    ---[Information] [23.06.2016 11:48:35] Video Bitrate Desired: 2767 kbit/s

    Пример субтитров

    10
    00:01:42,644 --> 00:01:45,814
    Вскоре родила королева дочь,
    11
    00:01:45,981 --> 00:01:49,401
    и назвали её Белоснежкой.
    12
    00:01:52,321 --> 00:01:54,406
    Все в королевстве любили ее,
    13
    00:01:54,531 --> 00:01:58,994
    ибо прекрасны в ней были и лицо, и душа.
    14
    00:02:30,192 --> 00:02:31,943
    Мы нашли его в лесу.
    15
    00:02:32,778 --> 00:02:34,363
    Он ранен, мама.
    16
    00:02:35,030 --> 00:02:36,406
    Должно быть, сломал крыло.
    17
    00:02:37,699 --> 00:02:40,243
    Не тревожься, скоро заживёт.
    18
    00:02:40,410 --> 00:02:41,578
    Я буду ухаживать за ним.
    19
    00:02:42,412 --> 00:02:44,414
    Ты одарена свыше, красотой.
    20
    00:02:46,249 --> 00:02:47,417
    Истинной.
    Скачать .torrent

    Скачать торрент-файл бесплатно и на максимальной скорости!

    Как скачивать? · Что такое торрент? · Рейтинг и ограничения

    !ВНИМАНИЕ!
    Сайт не распространяет и не хранит электронные версии произведений, а занимается лишь лишь предоставлением доступа к создаваемому пользователями каталогу ссылок на торрент-файлы, которые содержат только списки хеш-сумм, убедительная просьба с жалобами обращаться напрямую к пользователю. Файлы для обмена на трекере предоставлены пользователями сайта, и администрация не несёт ответственности за их содержание. Просьба не заливать файлы, защищенные авторскими правами, а также файлы нелегального содержания!


    _________________
    [Профиль] [ЛС]
    Показать сообщения:    
    Ответить на тему

    Текущее время: Сегодня, в 12:59

    Часовой пояс: GMT + 2



    Вы не можете начинать темы
    Вы не можете отвечать на сообщения
    Вы не можете редактировать свои сообщения
    Вы не можете удалять свои сообщения
    Вы не можете голосовать в опросах
    Вы не можете прикреплять файлы к сообщениям
    Вы не можете скачивать файлы