BitTorrentTracker PerecTracker.org
BitTorrentTracker PerecTracker.org
    
Регистрация  ·  Вход
 
 · 
Забыли пароль?

  • (Grunge rock) Nickelback - Discography - 1996-2008, APE (image + .cue), lossless

    Ответить на тему
     
    Автор Сообщение

    Йохан Палыч

    Создавать темы 25-Июн-2016 15:22

           

    [Цитировать]

    Nickelback - Discography-Исполнитель: Nickelback
    Альбом: Discography
    Жанр: Grunge rock
    Год выпуска: 1996-2008
    Страна: USA , Россия
    Формат: APE (image + .cue)
    Битрейт аудио: lossless
    Продолжительность: 6 CD

    1996 - Curb

    Исполнитель: Nickelback
    Альбом: Curb
    Жанр: Grunge rock
    Год выпуска: 1996
    Страна: USA , Россия
    Формат: APE (image + .cue)
    Битрейт аудио: lossless
    Продолжительность: 00:46:24
    Треклист:
    01. Little Friend [0:03:48.72]
    02. Pusher [0:04:00.53]
    03. Detangler [0:03:41.02]
    04. Curb [0:04:51.38]
    05. Where [0:04:27.12]
    06. Falls Back On [0:02:57.33]
    07. Sea Groove [0:03:58.00]
    08. Fly [0:02:53.20]
    09. Just Four [0:03:54.00]
    10. Left [0:04:03.30]
    11. Window Shopper [0:03:42.45]
    12. I Don't Have [0:04:06.00]

    MediaInfo

    Exact Audio Copy V0.99 prebeta 4 from 23. January 2008
    Отчёт EAC об извлечении, выполненном 18. декабря 2008, 9:33
    Nickelback / Curb
    Дисковод: Optiarc DVD RW AD-7200S Adapter: 1 ID: 1
    Режим чтения : Достоверность
    Использование точного потока : Да
    Отключение кэша аудио : Да
    Использование указателей C2 : Нет
    Коррекция смещения при чтении : 48
    Способность читать области Lead-in и Lead-out : Нет
    Заполнение пропущенных сэмплов тишиной : Да
    Удаление блоков с тишиной в начале и конце : Нет
    При вычислениях CRC использовались нулевые сэмплы : Да
    Интерфейс : Встроенный Win32-интерфейс для Win NT/2000
    Выходной формат : Monkey's Audio Lossless Encoder v3.99 DLL
    Формат сэмплов : Fast Lossless Compression
    TOC извлечённого CD
    Трек | Старт | Длительность | Начальный сектор | Конечный сектор
    ---------------------------------------------------------------------
    1 | 0:00.00 | 3:48.72 | 0 | 17171
    2 | 3:48.72 | 4:00.53 | 17172 | 35224
    3 | 7:49.50 | 3:41.02 | 35225 | 51801
    4 | 11:30.52 | 4:51.38 | 51802 | 73664
    5 | 16:22.15 | 4:27.12 | 73665 | 93701
    6 | 20:49.27 | 2:57.33 | 93702 | 107009
    7 | 23:46.60 | 3:58.00 | 107010 | 124859
    8 | 27:44.60 | 2:53.20 | 124860 | 137854
    9 | 30:38.05 | 3:54.00 | 137855 | 155404
    10 | 34:32.05 | 4:03.30 | 155405 | 173659
    11 | 38:35.35 | 3:42.45 | 173660 | 190354
    12 | 42:18.05 | 4:06.00 | 190355 | 208804
    Характеристики диапазона извлечения и сообщения об ошибках
    Выбранный диапазон
    Имя файла F:\Музыка\торренты\Никелбэк_дискография\1996\Nickelback - Curb.ape
    Пиковый уровень 100.0 %
    Качество диапазона 100.0 %
    CRC копии 32540E89
    Копирование... OK
    Ошибок не произошло
    Конец отчёта

    Cover

    1999 - The State

    Исполнитель: Nickelback
    Альбом: The State
    Жанр: Grunge rock
    Год выпуска: 1999
    Страна: USA , Россия
    Формат: APE (image + .cue)
    Битрейт аудио: lossless
    Продолжительность: 00:38:53
    Треклист:
    01. Breathe [0:03:58.12]
    02. Cowboy Hat [0:03:56.03]
    03. Leader Of Men [0:03:30.47]
    04. Old Enough [0:02:45.50]
    05. Worthy To Say [0:04:06.10]
    06. Diggin' This [0:03:01.43]
    07. Deep [0:02:48.25]
    08. One Last Run [0:03:30.62]
    09. Not Leavin' Yet [0:03:44.58]
    10. Hold Out Your Hand [0:04:08.00]
    11. Leader Of Men (Acoustic) [0:03:23.47]

    MediaInfo

    Exact Audio Copy V0.99 prebeta 4 from 23. January 2008
    Отчёт EAC об извлечении, выполненном 18. декабря 2008, 9:16
    Nickelback / The State
    Дисковод: Optiarc DVD RW AD-7200S Adapter: 1 ID: 1
    Режим чтения : Достоверность
    Использование точного потока : Да
    Отключение кэша аудио : Да
    Использование указателей C2 : Нет
    Коррекция смещения при чтении : 48
    Способность читать области Lead-in и Lead-out : Нет
    Заполнение пропущенных сэмплов тишиной : Да
    Удаление блоков с тишиной в начале и конце : Нет
    При вычислениях CRC использовались нулевые сэмплы : Да
    Интерфейс : Встроенный Win32-интерфейс для Win NT/2000
    Выходной формат : Monkey's Audio Lossless Encoder v3.99 DLL
    Формат сэмплов : Fast Lossless Compression
    TOC извлечённого CD
    Трек | Старт | Длительность | Начальный сектор | Конечный сектор
    ---------------------------------------------------------------------
    1 | 0:00.00 | 3:58.12 | 0 | 17861
    2 | 3:58.12 | 3:56.03 | 17862 | 35564
    3 | 7:54.15 | 3:30.47 | 35565 | 51361
    4 | 11:24.62 | 2:45.50 | 51362 | 63786
    5 | 14:10.37 | 4:06.10 | 63787 | 82246
    6 | 18:16.47 | 3:01.43 | 82247 | 95864
    7 | 21:18.15 | 2:48.25 | 95865 | 108489
    8 | 24:06.40 | 3:30.62 | 108490 | 124301
    9 | 27:37.27 | 3:44.58 | 124302 | 141159
    10 | 31:22.10 | 4:08.00 | 141160 | 159759
    11 | 35:30.10 | 3:23.47 | 159760 | 175031
    Характеристики диапазона извлечения и сообщения об ошибках
    Выбранный диапазон
    Имя файла F:\Музыка\торренты\Никелбэк_дискография\1999\Nickelback - The State.ape
    Пиковый уровень 100.0 %
    Качество диапазона 99.9 %
    CRC копии CD38E353
    Копирование... OK
    Ошибок не произошло
    Конец отчёта

    Cover

    2001 - Silver Slide Up

    Исполнитель: Nickelback
    Альбом: Silver Slide Up
    Жанр: Grunge rock
    Год выпуска: 2001
    Страна: USA , Россия
    Формат: APE (image + .cue)
    Битрейт аудио: lossless
    Продолжительность: 00:39:10
    Треклист:
    01. Never Again [0:04:20.62]
    Chad Kroeger / Nickelback
    02. How You Remind Me [0:03:43.63]
    Chad Kroeger / Nickelback
    03. Woke Up This Morning [0:03:50.17]
    Chad Kroeger / Nickelback
    04. Too Bad [0:03:52.18]
    Chad Kroeger / Nickelback
    05. Just For [0:04:03.15]
    Chad Kroeger / Nickelback
    06. Hollywood [0:03:04.65]
    Chad Kroeger / Nickelback
    07. Money Bought [0:03:24.65]
    Chad Kroeger / Nickelback
    08. Where Do I Hide [0:03:38.00]
    Chad Kroeger / Nickelback
    09. Hangnail [0:03:54.32]
    Chad Kroeger / Nickelback
    10. Good Times Gone [0:05:18.08]
    Chad Kroeger / Nickelback

    MediaInfo

    Exact Audio Copy V0.99 prebeta 4 from 23. January 2008
    Отчёт EAC об извлечении, выполненном 17. декабря 2008, 19:57
    Nickelback / Silver Side Up
    Дисковод: Optiarc DVD RW AD-7200S Adapter: 1 ID: 1
    Режим чтения : Достоверность
    Использование точного потока : Да
    Отключение кэша аудио : Да
    Использование указателей C2 : Нет
    Коррекция смещения при чтении : 48
    Способность читать области Lead-in и Lead-out : Нет
    Заполнение пропущенных сэмплов тишиной : Да
    Удаление блоков с тишиной в начале и конце : Нет
    При вычислениях CRC использовались нулевые сэмплы : Да
    Интерфейс : Встроенный Win32-интерфейс для Win NT/2000
    Выходной формат : Monkey's Audio Lossless Encoder v3.99 DLL
    Формат сэмплов : Fast Lossless Compression
    TOC извлечённого CD
    Трек | Старт | Длительность | Начальный сектор | Конечный сектор
    ---------------------------------------------------------------------
    1 | 0:00.00 | 4:20.62 | 0 | 19561
    2 | 4:20.62 | 3:43.63 | 19562 | 36349
    3 | 8:04.50 | 3:50.17 | 36350 | 53616
    4 | 11:54.67 | 3:52.18 | 53617 | 71034
    5 | 15:47.10 | 4:03.15 | 71035 | 89274
    6 | 19:50.25 | 3:04.65 | 89275 | 103139
    7 | 22:55.15 | 3:24.65 | 103140 | 118504
    8 | 26:20.05 | 3:38.00 | 118505 | 134854
    9 | 29:58.05 | 3:54.32 | 134855 | 152436
    10 | 33:52.37 | 5:18.08 | 152437 | 176294
    Характеристики диапазона извлечения и сообщения об ошибках
    Выбранный диапазон
    Имя файла F:\Музыка\торренты\Никелбэк_дискография\2001\Nickelback - Silver Side Up.ape
    Пиковый уровень 100.0 %
    Качество диапазона 99.9 %
    CRC копии 5ADC51C9
    Копирование... OK
    Ошибок не произошло
    Конец отчёта

    Cover

    2003 - The Long Road

    Исполнитель: Nickelback
    Альбом: The Long Road
    Жанр: Grunge rock
    Год выпуска: 2003
    Страна: USA , Россия
    Формат: APE (image + .cue)
    Битрейт аудио: lossless
    Продолжительность: 00:40:34
    Треклист:
    01. Flat On The Floor [0:02:02.40]
    02. Do This Anymore [0:04:03.74]
    03. Someday [0:03:27.34]
    04. Believe It Or Not [0:04:07.73]
    05. Feelin' Way Too Damn Good [0:04:16.40]
    06. Because Of You [0:03:30.09]
    07. Figured You Out [0:03:48.49]
    08. Should've Listened [0:03:42.56]
    09. Throw Yourself Away [0:03:55.20]
    10. Another Hole In The Head [0:03:35.50]
    11. See You At The Show [0:04:03.65]

    MediaInfo

    Exact Audio Copy V0.99 prebeta 4 from 23. January 2008
    Отчёт EAC об извлечении, выполненном 17. декабря 2008, 20:10
    Nickelback / The Long Road
    Дисковод: Optiarc DVD RW AD-7200S Adapter: 1 ID: 1
    Режим чтения : Достоверность
    Использование точного потока : Да
    Отключение кэша аудио : Да
    Использование указателей C2 : Нет
    Коррекция смещения при чтении : 48
    Способность читать области Lead-in и Lead-out : Нет
    Заполнение пропущенных сэмплов тишиной : Да
    Удаление блоков с тишиной в начале и конце : Нет
    При вычислениях CRC использовались нулевые сэмплы : Да
    Интерфейс : Встроенный Win32-интерфейс для Win NT/2000
    Выходной формат : Monkey's Audio Lossless Encoder v3.99 DLL
    Формат сэмплов : Fast Lossless Compression
    TOC извлечённого CD
    Трек | Старт | Длительность | Начальный сектор | Конечный сектор
    ---------------------------------------------------------------------
    1 | 0:00.00 | 2:02.40 | 0 | 9189
    2 | 2:02.40 | 4:03.74 | 9190 | 27488
    3 | 6:06.39 | 3:27.34 | 27489 | 43047
    4 | 9:33.73 | 4:07.73 | 43048 | 61645
    5 | 13:41.71 | 4:16.40 | 61646 | 80885
    6 | 17:58.36 | 3:30.09 | 80886 | 96644
    7 | 21:28.45 | 3:48.49 | 96645 | 113793
    8 | 25:17.19 | 3:42.56 | 113794 | 130499
    9 | 29:00.00 | 3:55.20 | 130500 | 148144
    10 | 32:55.20 | 3:35.50 | 148145 | 164319
    11 | 36:30.70 | 4:03.65 | 164320 | 182609
    Характеристики диапазона извлечения и сообщения об ошибках
    Выбранный диапазон
    Имя файла F:\Музыка\торренты\Никелбэк_дискография\2003\Nickelback - The Long Road.ape
    Пиковый уровень 100.0 %
    Качество диапазона 100.0 %
    CRC копии E8980BD1
    Копирование... OK
    Ошибок не произошло
    Конец отчёта

    Cover

    2005 - All The Right Reasons

    Исполнитель: Nickelback
    Альбом: All The Right Reasons
    Жанр: Grunge rock
    Год выпуска: 2005
    Страна: USA , Россия
    Формат: APE (image + .cue)
    Битрейт аудио: lossless
    Продолжительность: 00:41:40
    Треклист:
    01. Follow You Home [0:04:20.62]
    02. Fight For All The Wrong Reasons [0:03:44.20]
    03. Photograph [0:04:18.66]
    04. Animals [0:03:06.45]
    05. Savin' Me [0:03:39.24]
    06. Far Away [0:03:58.15]
    07. Next Contestant [0:03:34.51]
    08. Side of a Bullet [0:03:00.42]
    09. If Everyone Cared [0:03:38.00]
    10. Someone that you're with [0:04:01.55]
    11. Rockstar [0:04:17.51]

    MediaInfo

    Exact Audio Copy V0.99 prebeta 4 from 23. January 2008
    Отчёт EAC об извлечении, выполненном 17. декабря 2008, 20:24
    Nickelback / All the right reasons
    Дисковод: Optiarc DVD RW AD-7200S Adapter: 1 ID: 1
    Режим чтения : Достоверность
    Использование точного потока : Да
    Отключение кэша аудио : Да
    Использование указателей C2 : Нет
    Коррекция смещения при чтении : 48
    Способность читать области Lead-in и Lead-out : Нет
    Заполнение пропущенных сэмплов тишиной : Да
    Удаление блоков с тишиной в начале и конце : Нет
    При вычислениях CRC использовались нулевые сэмплы : Да
    Интерфейс : Встроенный Win32-интерфейс для Win NT/2000
    Выходной формат : Monkey's Audio Lossless Encoder v3.99 DLL
    Формат сэмплов : Fast Lossless Compression
    TOC извлечённого CD
    Трек | Старт | Длительность | Начальный сектор | Конечный сектор
    ---------------------------------------------------------------------
    1 | 0:00.00 | 4:20.62 | 0 | 19561
    2 | 4:20.62 | 3:44.20 | 19562 | 36381
    3 | 8:05.07 | 4:18.66 | 36382 | 55797
    4 | 12:23.73 | 3:06.45 | 55798 | 69792
    5 | 15:30.43 | 3:39.24 | 69793 | 86241
    6 | 19:09.67 | 3:58.15 | 86242 | 104106
    7 | 23:08.07 | 3:34.51 | 104107 | 120207
    8 | 26:42.58 | 3:00.42 | 120208 | 133749
    9 | 29:43.25 | 3:38.00 | 133750 | 150099
    10 | 33:21.25 | 4:01.55 | 150100 | 168229
    11 | 37:23.05 | 4:17.51 | 168230 | 187555
    Характеристики диапазона извлечения и сообщения об ошибках
    Выбранный диапазон
    Имя файла F:\Музыка\торренты\Никелбэк_дискография\2005\Nickelback - All the right reasons.ape
    Пиковый уровень 96.6 %
    Качество диапазона 100.0 %
    CRC копии D1B56DAA
    Копирование... OK
    Ошибок не произошло
    Конец отчёта

    Cover

    2008 - Dark Horse

    Исполнитель: Nickelback
    Альбом: Dark Horse
    Жанр: Grunge rock
    Год выпуска: 2008
    Страна: USA , Россия
    Формат: APE (image + .cue)
    Битрейт аудио: lossless
    Продолжительность: 00:43:38
    Треклист:
    01. Something In Your Mouth [0:03:38.65]
    02. Burn It To The Ground [0:03:30.72]
    03. Gotta Be Somebody [0:04:13.30]
    04. I'd Come For You [0:04:22.62]
    05. Next Go Round [0:03:45.27]
    06. Tust To Get High [0:04:02.06]
    07. Never Gonna Be Alone [0:03:47.15]
    08. Shakin' Hands [0:03:39.63]
    09. S.E.X. [0:03:55.09]
    10. If Today Was Your Last Day [0:04:08.04]
    11. This Afternoon [0:04:34.49]

    MediaInfo

    Exact Audio Copy V0.99 prebeta 4 from 23. January 2008
    Отчёт EAC об извлечении, выполненном 18. декабря 2008, 9:47
    Nickelback / Dark Horse
    Дисковод: Optiarc DVD RW AD-7200S Adapter: 1 ID: 1
    Режим чтения : Достоверность
    Использование точного потока : Да
    Отключение кэша аудио : Да
    Использование указателей C2 : Нет
    Коррекция смещения при чтении : 48
    Способность читать области Lead-in и Lead-out : Нет
    Заполнение пропущенных сэмплов тишиной : Да
    Удаление блоков с тишиной в начале и конце : Нет
    При вычислениях CRC использовались нулевые сэмплы : Да
    Интерфейс : Встроенный Win32-интерфейс для Win NT/2000
    Выходной формат : Monkey's Audio Lossless Encoder v3.99 DLL
    Формат сэмплов : Fast Lossless Compression
    TOC извлечённого CD
    Трек | Старт | Длительность | Начальный сектор | Конечный сектор
    ---------------------------------------------------------------------
    1 | 0:00.00 | 3:38.65 | 0 | 16414
    2 | 3:38.65 | 3:30.72 | 16415 | 32236
    3 | 7:09.62 | 4:13.30 | 32237 | 51241
    4 | 11:23.17 | 4:22.62 | 51242 | 70953
    5 | 15:46.04 | 3:45.27 | 70954 | 87855
    6 | 19:31.31 | 4:02.06 | 87856 | 106011
    7 | 23:33.37 | 3:47.15 | 106012 | 123051
    8 | 27:20.52 | 3:39.63 | 123052 | 139539
    9 | 31:00.40 | 3:55.09 | 139540 | 157173
    10 | 34:55.49 | 4:08.04 | 157174 | 175777
    11 | 39:03.53 | 4:34.49 | 175778 | 196376
    Характеристики диапазона извлечения и сообщения об ошибках
    Выбранный диапазон
    Имя файла F:\Музыка\торренты\Никелбэк_дискография\2008\Nickelback - Dark Horse.ape
    Пиковый уровень 100.0 %
    Качество диапазона 100.0 %
    CRC копии 43015607
    Копирование... OK
    Ошибок не произошло
    Конец отчёта

    Cover

    Скачать .torrent

    Скачать торрент-файл бесплатно и на максимальной скорости!

    Как скачивать? · Что такое торрент? · Рейтинг и ограничения

    !ВНИМАНИЕ!
    Сайт не распространяет и не хранит электронные версии произведений, а занимается лишь лишь предоставлением доступа к создаваемому пользователями каталогу ссылок на торрент-файлы, которые содержат только списки хеш-сумм, убедительная просьба с жалобами обращаться напрямую к пользователю. Файлы для обмена на трекере предоставлены пользователями сайта, и администрация не несёт ответственности за их содержание. Просьба не заливать файлы, защищенные авторскими правами, а также файлы нелегального содержания!


    _________________
    SKYPE: Teckatlipoka6
    “Искушение сдаться, будет особенно сильным незадолго до победы”
    Как жизнь ?

    [Профиль] [ЛС]
    Показать сообщения:    
    Ответить на тему

    Текущее время: Сегодня, в 18:03

    Часовой пояс: GMT + 2



    Вы не можете начинать темы
    Вы не можете отвечать на сообщения
    Вы не можете редактировать свои сообщения
    Вы не можете удалять свои сообщения
    Вы не можете голосовать в опросах
    Вы не можете прикреплять файлы к сообщениям
    Вы не можете скачивать файлы