BitTorrentTracker PerecTracker.org
BitTorrentTracker PerecTracker.org
    
Регистрация  ·  Вход
 
 · 
Забыли пароль?

  • Биркебейнеры / Birkebeinerne (Нильс Гёуп / Nils Gaup) [2016, Норвегия, боевик, драма, приключения, BDRip 720p] MVO (ColdFilm) + Sub Eng, Rom, Nor + Original Nor

    Ответить на тему
     
    Автор Сообщение

    Light

    Создавать темы 25-Июн-2016 14:48

           

    [Цитировать]

    Биркебейнеры / Birkebeinerne
    Страна: Норвегия
    Студия: Newgrange Pictures, Paradox Film 3
    Жанр: боевик, драма, приключения
    Год выпуска: 2016
    Продолжительность: 01:39:25
    Перевод: Любительский (многоголосый закадровый) ColdFilm
    Cубтитры: английские, румынские, норвежские
    Оригинальная аудиодорожка: норвежский
    Режиссер: Нильс Гёуп / Nils Gaup
    В ролях: Асмунд Бреде Эйке, , Пол Сверре Валхейм Хаген, Торбьорн Харр, Беньямин Хельстад, Кристофер Хивью, Стиг Хенрик Хофф, Еппе Леурсен, Николай Ли Каас
    Описание: 1204 год, Норвегию раздирает гражданская война. Незаконнорожденного сына короля Хокона III Сверрессона и Инги из Вартейга хранят в глубокой тайне. Мальчик был внебрачным сыном короля и родился после его смерти, что спровоцировало кровавую междоусобицу. Биркебейнеры (ополчение, созданное его дедом, королем Сверре Сигурдсоном) признали мальчика наследником трона Норвегии. Однако католические священники объявили охоту на ребенка с целью его уничтожения.
    В 1206 году группа вооруженных биркебейнеров помогла Инги и Хокону бежать на север под покровительством короля Инге Бордссона. По пути их небольшой отряд попал в снежную бурю, но два могучих воина, Торстейн Шевла и Шьервальд Шрукка, продолжали продвигаться на лыжах, неся ребенка на руках. Когда Хокона доставили в Тронхейм, король Инге взял его под своё покровительство.- -Сэмпл: https://yadi.sk/i/JEff24pPsmVcM
    Тип релиза: BDRip 720p [NorTV]
    Контейнер: MKV
    Видео: h.264, 1280x544, 24.000 fps, 5797 kbps
    Аудио #1: Russian: DTS 5.1, 48 kHz/24-bit, 1536 kbps avg |Многоголосый закадровый, ColdFilm|
    Аудио #2: Norwegian: DTS 5.1, 48 kHz/24-bit, 1536 kbps avg |Оригинал|
    Формат субтитров: softsub (SRT)

    MediaInfo

    Complete name : E:\Birkebeinerne.2016.720p.BluRay.Rus.Nor.HDCLUB.mkv
    Format : Matroska
    Format version : Version 2
    File size : 6.24 GiB
    Duration : 1h 39mn
    Overall bit rate : 8 994 Kbps
    Movie name : Birkebeinerne (2016) - Release for HDCLUB
    Encoded date : UTC 2016-06-24 08:02:42
    Writing application : mkvmerge v5.7.0 ('The Whirlwind') built on Jul 8 2012 20:08:51
    Writing library : libebml v1.2.3 + libmatroska v1.3.0
    Video
    ID : 1
    Format : AVC
    Format/Info : Advanced Video Codec
    Format profile : High@L4.1
    Format settings, CABAC : Yes
    Format settings, ReFrames : 12 frames
    Codec ID : V_MPEG4/ISO/AVC
    Duration : 1h 39mn
    Bit rate : 5 797 Kbps
    Width : 1 280 pixels
    Height : 544 pixels
    Display aspect ratio : 2.35:1
    Frame rate mode : Constant
    Frame rate : 24.000 fps
    Color space : YUV
    Chroma subsampling : 4:2:0
    Bit depth : 8 bits
    Scan type : Progressive
    Bits/(Pixel*Frame) : 0.347
    Stream size : 4.02 GiB (64%)
    Writing library : x264 core 148 r2692 64f4e24
    Encoding settings : cabac=1 / ref=12 / deblock=1:-3:-3 / analyse=0x3:0x133 / me=umh / subme=10 / psy=1 / psy_rd=1.00:0.00 / mixed_ref=1 / me_range=24 / chroma_me=1 / trellis=2 / 8x8dct=1 / cqm=0 / deadzone=21,11 / fast_pskip=1 / chroma_qp_offset=-2 / threads=12 / lookahead_threads=2 / sliced_threads=0 / nr=0 / decimate=1 / interlaced=0 / bluray_compat=0 / constrained_intra=0 / bframes=8 / b_pyramid=2 / b_adapt=2 / b_bias=0 / direct=3 / weightb=1 / open_gop=0 / weightp=2 / keyint=250 / keyint_min=24 / scenecut=40 / intra_refresh=0 / rc=crf / mbtree=0 / crf=16.0 / qcomp=0.60 / qpmin=0 / qpmax=69 / qpstep=4 / ip_ratio=1.40 / pb_ratio=1.30 / aq=3:0.85
    Language : Norwegian
    Default : Yes
    Forced : No
    Audio #1
    ID : 2
    Format : DTS
    Format/Info : Digital Theater Systems
    Mode : 16
    Format settings, Endianness : Big
    Codec ID : A_DTS
    Duration : 1h 39mn
    Bit rate mode : Constant
    Bit rate : 1 509 Kbps
    Channel(s) : 6 channels
    Channel positions : Front: L C R, Side: L R, LFE
    Sampling rate : 48.0 KHz
    Frame rate : 93.750 fps (512 spf)
    Bit depth : 24 bits
    Compression mode : Lossy
    Stream size : 1.05 GiB (17%)
    Title : |Многоголосый закадровый, ColdFilm|
    Language : Russian
    Default : Yes
    Forced : No
    Audio #2
    ID : 3
    Format : DTS
    Format/Info : Digital Theater Systems
    Mode : 16
    Format settings, Endianness : Big
    Codec ID : A_DTS
    Duration : 1h 39mn
    Bit rate mode : Constant
    Bit rate : 1 509 Kbps
    Channel(s) : 6 channels
    Channel positions : Front: L C R, Side: L R, LFE
    Sampling rate : 48.0 KHz
    Frame rate : 93.750 fps (512 spf)
    Bit depth : 24 bits
    Compression mode : Lossy
    Stream size : 1.05 GiB (17%)
    Language : Norwegian
    Default : No
    Forced : No
    Text #1
    ID : 4
    Format : UTF-8
    Codec ID : S_TEXT/UTF8
    Codec ID/Info : UTF-8 Plain Text
    Language : English
    Default : No
    Forced : No
    Text #2
    ID : 5
    Format : UTF-8
    Codec ID : S_TEXT/UTF8
    Codec ID/Info : UTF-8 Plain Text
    Language : Romanian
    Default : No
    Forced : No
    Text #3
    ID : 6
    Format : UTF-8
    Codec ID : S_TEXT/UTF8
    Codec ID/Info : UTF-8 Plain Text
    Language : Norwegian
    Default : No
    Forced : No
    Text #4
    ID : 7
    Format : UTF-8
    Codec ID : S_TEXT/UTF8
    Codec ID/Info : UTF-8 Plain Text
    Language : Norwegian
    Default : No
    Forced : No

    Source vs Encode




    Скриншоты

    Скачать .torrent

    Скачать торрент-файл бесплатно и на максимальной скорости!

    Как скачивать? · Что такое торрент? · Рейтинг и ограничения

    !ВНИМАНИЕ!
    Сайт не распространяет и не хранит электронные версии произведений, а занимается лишь лишь предоставлением доступа к создаваемому пользователями каталогу ссылок на торрент-файлы, которые содержат только списки хеш-сумм, убедительная просьба с жалобами обращаться напрямую к пользователю. Файлы для обмена на трекере предоставлены пользователями сайта, и администрация не несёт ответственности за их содержание. Просьба не заливать файлы, защищенные авторскими правами, а также файлы нелегального содержания!


    _________________
    [Профиль] [ЛС]
    Показать сообщения:    
    Ответить на тему

    Текущее время: Сегодня, в 22:12

    Часовой пояс: GMT + 2



    Вы не можете начинать темы
    Вы не можете отвечать на сообщения
    Вы не можете редактировать свои сообщения
    Вы не можете удалять свои сообщения
    Вы не можете голосовать в опросах
    Вы не можете прикреплять файлы к сообщениям
    Вы не можете скачивать файлы