BitTorrentTracker PerecTracker.org
BitTorrentTracker PerecTracker.org
    
Регистрация  ·  Вход
 
 · 
Забыли пароль?

  • Гордость и предубеждение и зомби / Pride and Prejudice and Zombies (Бёрр Стирс / Burr Steers) [2016, США, Великобритания, ужасы, боевик, мелодрама, BDRemux 1080p] Dub + Sub Eng + Original Eng

    Ответить на тему
     
    Автор Сообщение

    Light

    Создавать темы 25-Июн-2016 14:48

           

    [Цитировать]

    Гордость и предубеждение и зомби / Pride and Prejudice and Zombies«'It is a truth universally acknowledged that a zombie in possession of brains must be in want of more brains.' - Jane Austen and Seth Grahame-Smith»-Страна: США, Великобритания
    Жанр: ужасы, боевик, мелодрама
    Год выпуска: 2016
    Продолжительность: 01:47:32-Перевод: Профессиональный (дублированный)
    Cубтитры: английские
    Оригинальная аудиодорожка: английский-Режиссер: Бёрр Стирс / Burr Steers
    В ролях: Лили Джеймс, Сэм Райли, Белла Хиткот, Элли Бамбер, Милли Брэйди, Сьюки Уотерхаус, Дуглас Бут, Сэлли Филлипс, Чарльз Дэнс, Джек Хьюстон
    Описание: Англия, XIX век. Элизабет Беннет и её сестры вынуждены противостоять заполонившим Англию ходячим мертвецам, а так же девушки сталкиваются с давлением необходимости найти себе мужей.--Тип релиза: BDRemux
    Контейнер: MKV
    Видео: AVC, 1920*1080p, 23872 kbps, 23.976 fps
    Аудио 1: DTS-HD MA, 48.0 KHz, 1570 Kbps, 5.1 ch (DTS Core: 5.1 / 48 kHz / 768 / 16-bit) [Rus]
    Аудио 2: DTS-HD MA, 48.0 KHz, 2218 Kbps, 5.1 ch (DTS Core: 5.1 / 48 kHz / 1509 kbps / 16-bit) [Eng]
    Формат субтитров: softsub (SRT)

    MediaInfo

    General
    Unique ID : 248213885254255228887044533971483312308 (0xBABC41635C8DC37FBE10B2DF4FAF40B4)
    Complete name : C:\ppol\Pride.and.Prejudice.and.Zombies...2016...BDREMUX.1080p.ExKinoRay.mkv
    Format : Matroska
    Format version : Version 4 / Version 2
    File size : 20.8 GiB
    Duration : 1h 47mn
    Overall bit rate mode : Variable
    Overall bit rate : 27.7 Mbps
    Movie name : Pride.and.Prejudice.and.Zombies...2016...BDREMUX.1080p.ExKinoRay
    Encoded date : UTC 2016-05-20 21:15:44
    Writing application : mkvmerge v8.3.0 ('Over the Horizon') 64bit
    Writing library : libebml v1.3.1 + libmatroska v1.4.2
    Video
    ID : 1
    Format : AVC
    Format/Info : Advanced Video Codec
    Format profile : High@L4.1
    Format settings, CABAC : Yes
    Format settings, ReFrames : 2 frames
    Format settings, GOP : M=1, N=10
    Codec ID : V_MPEG4/ISO/AVC
    Duration : 1h 47mn
    Bit rate mode : Variable
    Bit rate : 23.9 Mbps
    Width : 1 920 pixels
    Height : 1 080 pixels
    Display aspect ratio : 16:9
    Frame rate mode : Constant
    Frame rate : 23.976 (24000/1001) fps
    Color space : YUV
    Chroma subsampling : 4:2:0
    Bit depth : 8 bits
    Scan type : Progressive
    Bits/(Pixel*Frame) : 0.480
    Stream size : 17.9 GiB (86%)
    Title : Pride.and.Prejudice.and.Zombies.2016.BDREMUX.1080p.ExKinoRay.***селезень***
    Language : English
    Default : Yes
    Forced : No
    Audio #1
    ID : 2
    Format : DTS
    Format/Info : Digital Theater Systems
    Format profile : MA / Core
    Mode : 16
    Format settings, Endianness : Big
    Codec ID : A_DTS
    Duration : 1h 47mn
    Bit rate mode : Variable / Constant
    Bit rate : 1 570 Kbps / 768 Kbps
    Channel(s) : 6 channels
    Channel positions : Front: L C R, Side: L R, LFE
    Sampling rate : 48.0 KHz
    Frame rate : 93.750 fps (512 spf)
    Bit depth : 16 bits
    Compression mode : Lossless / Lossy
    Delay relative to video : 28ms
    Stream size : 1.18 GiB (6%)
    Title : DUB [License]
    Language : Russian
    Default : Yes
    Forced : No
    Audio #2
    ID : 3
    Format : DTS
    Format/Info : Digital Theater Systems
    Format profile : MA / Core
    Mode : 16
    Format settings, Endianness : Big
    Codec ID : A_DTS
    Duration : 1h 47mn
    Bit rate mode : Variable / Constant
    Bit rate : 2 218 Kbps / 1 509 Kbps
    Channel(s) : 6 channels
    Channel positions : Front: L C R, Side: L R, LFE
    Sampling rate : 48.0 KHz
    Frame rate : 93.750 fps (512 spf)
    Bit depth : 16 bits
    Compression mode : Lossless / Lossy
    Stream size : 1.67 GiB (8%)
    Title : Original
    Language : English
    Default : No
    Forced : No
    Text #1
    ID : 4
    Format : UTF-8
    Codec ID : S_TEXT/UTF8
    Codec ID/Info : UTF-8 Plain Text
    Duration : 1mn 57s
    Bit rate : 7 bps
    Count of elements : 2
    Stream size : 106 Bytes (0%)
    Title : FORCED
    Language : English
    Default : No
    Forced : No
    Text #2
    ID : 5
    Format : UTF-8
    Codec ID : S_TEXT/UTF8
    Codec ID/Info : UTF-8 Plain Text
    Duration : 1h 46mn
    Bit rate : 58 bps
    Count of elements : 1293
    Stream size : 45.9 KiB (0%)
    Title : English regular
    Language : English
    Default : No
    Forced : No
    Text #3
    ID : 6
    Format : UTF-8
    Codec ID : S_TEXT/UTF8
    Codec ID/Info : UTF-8 Plain Text
    Duration : 1h 46mn
    Bit rate : 64 bps
    Count of elements : 1486
    Stream size : 50.8 KiB (0%)
    Title : SDH
    Language : English
    Default : No
    Forced : No
    Menu
    00:00:00.000 : en:00:00:00.000
    00:06:41.318 : en:00:06:41.318
    00:11:50.251 : en:00:11:50.251
    00:17:59.996 : en:00:17:59.996
    00:24:06.445 : en:00:24:06.445
    00:31:53.036 : en:00:31:53.036
    00:37:43.595 : en:00:37:43.595
    00:44:22.243 : en:00:44:22.243
    00:52:06.623 : en:00:52:06.623
    00:59:28.607 : en:00:59:28.607
    01:05:45.233 : en:01:05:45.233
    01:11:16.981 : en:01:11:16.981
    01:18:40.674 : en:01:18:40.674
    01:25:03.348 : en:01:25:03.348
    01:30:18.163 : en:01:30:18.163
    01:35:49.744 : en:01:35:49.744

    Скриншоты

    -
    Скачать .torrent

    Скачать торрент-файл бесплатно и на максимальной скорости!

    Как скачивать? · Что такое торрент? · Рейтинг и ограничения

    !ВНИМАНИЕ!
    Сайт не распространяет и не хранит электронные версии произведений, а занимается лишь лишь предоставлением доступа к создаваемому пользователями каталогу ссылок на торрент-файлы, которые содержат только списки хеш-сумм, убедительная просьба с жалобами обращаться напрямую к пользователю. Файлы для обмена на трекере предоставлены пользователями сайта, и администрация не несёт ответственности за их содержание. Просьба не заливать файлы, защищенные авторскими правами, а также файлы нелегального содержания!


    _________________
    [Профиль] [ЛС]
    Показать сообщения:    
    Ответить на тему

    Текущее время: Сегодня, в 21:59

    Часовой пояс: GMT + 2



    Вы не можете начинать темы
    Вы не можете отвечать на сообщения
    Вы не можете редактировать свои сообщения
    Вы не можете удалять свои сообщения
    Вы не можете голосовать в опросах
    Вы не можете прикреплять файлы к сообщениям
    Вы не можете скачивать файлы