Register  ·  Log in
Forgot password?

  • Кэти / Гусеница Кэти / Katy la Oruga / Katy the Caterpillar (Хосе Луис Моро / José Luis Moro, Сантьяго Моро / Santiago Moro) [1984, Испания, Мексика, мультфильм, приключения, семейный, TeleSynch] [Советская прокатная копия] Dub (Ленфильм)

    Reply to topic
    Author Message


    Post 25-Jun-2016 15:48



    Кэти / Гусеница Кэти / Katy la Oruga / Katy the Caterpillar [Советская прокатная копия]
    Страна: Испания, Мексика
    Жанр: мультфильм, приключения, семейный
    Продолжительность: 01:10:34
    Год выпуска: 1984
    Перевод: Профессиональный (дублированный) - Киностудия "Ленфильм"
    Русские субтитры: нет
    Режиссёр: Хосе Луис Моро / José Luis Moro, Сантьяго Моро / Santiago Moro
    Роли озвучивали: Алиса Фрейндлих, Юрий Демич, Светлана Смирнова, Михаил Светин, Евгений Ганели, Владимир Татосов, Ольга Волкова, Александр Романцов, Валентина Панина, Ольга Лысенкова
    Описание: Этот мультфильм рассказывает о приключениях маленькой гусеницы. На голове она носила шапочку-цветок колокольчик. А в конце превратилась в красавицу бабочку.
    Доп. информация: Релиз киноклуба Феникс. Автор релиза- VadimNik. Фильм приобретен у коллекционера кинопленки из г. Сочи в рамках проекта КИНО - ДЕТЯМ.
    Фильм дублирован на киностудии ЛЕНФИЛЬМ в 1985 году.
    Качество: TeleSynch
    Формат: AVI
    Видео: 704x512 (1.38:1), 25 fps, XviD build 64 ~2386 kbps avg, 0.26 bit/pixel
    Аудио: 48 kHz, AC3 Dolby Digital, 2/0 (L,R) ch, ~192 kbps
    Субтитры: отсутствуют

    Подробные технические данные

    GeneralComplete name : Кэти(1984).aviFormat : AVIFormat/Info : Audio Video InterleaveFile size : 1.28 GiBDuration : 1h 10mnOverall bit rate : 2 589 KbpsWriting application : VirtualDubMod (build 2540/release)Writing library : VirtualDubMod build 2540/release
    VideoID : 0Format : MPEG-4 VisualFormat profile : Advanced Simple@L5Format settings, BVOP : 1Format settings, QPel : NoFormat settings, GMC : No warppointsFormat settings, Matrix : Default (MPEG)Codec ID : XVIDCodec ID/Hint : XviDDuration : 1h 10mnBit rate : 2 387 KbpsWidth : 704 pixelsHeight : 512 pixelsDisplay aspect ratio : 1.375Frame rate : 25.000 fpsColor space : YUVChroma subsampling : 4:2:0Bit depth : 8 bitsScan type : ProgressiveCompression mode : LossyBits/(Pixel*Frame) : 0.265Stream size : 1.18 GiB (92%)Writing library : XviD 64
    AudioID : 1Format : AC-3Format/Info : Audio Coding 3Mode extension : CM (complete main)Format settings, Endianness : BigCodec ID : 2000Duration : 1h 10mnBit rate mode : ConstantBit rate : 192 KbpsChannel(s) : 2 channelsChannel positions : Front: L RSampling rate : 48.0 KHzFrame rate : 31.250 fps (1536 spf)Compression mode : LossyStream size : 96.9 MiB (7%)Alignment : Split accross interleavesInterleave, duration : 40 ms (1.00 video frame)Interleave, preload duration : 500 ms


    Download .torrent

    Download free and at maximum speed!

    How to Download? · What is a torrent? · Ratings and Limitations

    The site does not extend and does not store electronic(digital) versions of products, and only gives access to a reference catalogue created by users on torrent-files which contain only lists of the hash-sums, the earnest entreaty, with complaints(abuse) to access directly to the user. Files for an exchange on tracker are given by users of a site, and the administration does not bear the responsibility for their maintenance. The request to not fill in the files protected by copyrights, and also files of the illegal maintenance!

    [Profile] [PM]
    Display posts from previous:    
    Reply to topic

    The time now is: Today 07:53

    All times are GMT + 3 Hours

    You cannot post new topics in this forum
    You cannot reply to topics in this forum
    You cannot edit your posts in this forum
    You cannot delete your posts in this forum
    You cannot vote in polls in this forum
    You cannot attach files in this forum
    You cannot download files in this forum