BitTorrentTracker PerecTracker.org
BitTorrentTracker PerecTracker.org
    
Регистрация  ·  Вход
 
 · 
Забыли пароль?

  • Кэти / Гусеница Кэти / Katy la Oruga / Katy the Caterpillar (Хосе Луис Моро / José Luis Moro, Сантьяго Моро / Santiago Moro) [1984, Испания, Мексика, мультфильм, приключения, семейный, TeleSynch] [Советская прокатная копия] Dub (Ленфильм)

    Ответить на тему
     
    Автор Сообщение

    Flirldrerve

    Создавать темы 25-Июн-2016 14:48

           

    [Цитировать]

    Кэти / Гусеница Кэти / Katy la Oruga / Katy the Caterpillar [Советская прокатная копия]
    Страна: Испания, Мексика
    Жанр: мультфильм, приключения, семейный
    Продолжительность: 01:10:34
    Год выпуска: 1984
    Перевод: Профессиональный (дублированный) - Киностудия "Ленфильм"
    Русские субтитры: нет
    Режиссёр: Хосе Луис Моро / José Luis Moro, Сантьяго Моро / Santiago Moro
    Роли озвучивали: Алиса Фрейндлих, Юрий Демич, Светлана Смирнова, Михаил Светин, Евгений Ганели, Владимир Татосов, Ольга Волкова, Александр Романцов, Валентина Панина, Ольга Лысенкова
    Описание: Этот мультфильм рассказывает о приключениях маленькой гусеницы. На голове она носила шапочку-цветок колокольчик. А в конце превратилась в красавицу бабочку.
    Доп. информация: Релиз киноклуба Феникс. Автор релиза- VadimNik. Фильм приобретен у коллекционера кинопленки из г. Сочи в рамках проекта КИНО - ДЕТЯМ.
    Фильм дублирован на киностудии ЛЕНФИЛЬМ в 1985 году.
    Семпл: http://sendfile.su/1245379
    Качество: TeleSynch
    Формат: AVI
    Видео: 704x512 (1.38:1), 25 fps, XviD build 64 ~2386 kbps avg, 0.26 bit/pixel
    Аудио: 48 kHz, AC3 Dolby Digital, 2/0 (L,R) ch, ~192 kbps
    Субтитры: отсутствуют

    Подробные технические данные

    GeneralComplete name : Кэти(1984).aviFormat : AVIFormat/Info : Audio Video InterleaveFile size : 1.28 GiBDuration : 1h 10mnOverall bit rate : 2 589 KbpsWriting application : VirtualDubMod 1.5.10.2 (build 2540/release)Writing library : VirtualDubMod build 2540/release
    VideoID : 0Format : MPEG-4 VisualFormat profile : Advanced Simple@L5Format settings, BVOP : 1Format settings, QPel : NoFormat settings, GMC : No warppointsFormat settings, Matrix : Default (MPEG)Codec ID : XVIDCodec ID/Hint : XviDDuration : 1h 10mnBit rate : 2 387 KbpsWidth : 704 pixelsHeight : 512 pixelsDisplay aspect ratio : 1.375Frame rate : 25.000 fpsColor space : YUVChroma subsampling : 4:2:0Bit depth : 8 bitsScan type : ProgressiveCompression mode : LossyBits/(Pixel*Frame) : 0.265Stream size : 1.18 GiB (92%)Writing library : XviD 64
    AudioID : 1Format : AC-3Format/Info : Audio Coding 3Mode extension : CM (complete main)Format settings, Endianness : BigCodec ID : 2000Duration : 1h 10mnBit rate mode : ConstantBit rate : 192 KbpsChannel(s) : 2 channelsChannel positions : Front: L RSampling rate : 48.0 KHzFrame rate : 31.250 fps (1536 spf)Compression mode : LossyStream size : 96.9 MiB (7%)Alignment : Split accross interleavesInterleave, duration : 40 ms (1.00 video frame)Interleave, preload duration : 500 ms

    Скриншоты

    Скачать .torrent

    Скачать торрент-файл бесплатно и на максимальной скорости!

    Как скачивать? · Что такое торрент? · Рейтинг и ограничения

    !ВНИМАНИЕ!
    Сайт не распространяет и не хранит электронные версии произведений, а занимается лишь лишь предоставлением доступа к создаваемому пользователями каталогу ссылок на торрент-файлы, которые содержат только списки хеш-сумм, убедительная просьба с жалобами обращаться напрямую к пользователю. Файлы для обмена на трекере предоставлены пользователями сайта, и администрация не несёт ответственности за их содержание. Просьба не заливать файлы, защищенные авторскими правами, а также файлы нелегального содержания!


    _________________
    [Профиль] [ЛС]
    Показать сообщения:    
    Ответить на тему

    Текущее время: Сегодня, в 22:33

    Часовой пояс: GMT + 2



    Вы не можете начинать темы
    Вы не можете отвечать на сообщения
    Вы не можете редактировать свои сообщения
    Вы не можете удалять свои сообщения
    Вы не можете голосовать в опросах
    Вы не можете прикреплять файлы к сообщениям
    Вы не можете скачивать файлы