BitTorrentTracker PerecTracker.org
BitTorrentTracker PerecTracker.org
    
Регистрация  ·  Вход
 
 · 
Забыли пароль?

  • 007: СПЕКТР / Spectre (Сэм Мендес / Sam Mendes) [2015, Великобритания, США, боевик, триллер, приключения, BDRip-AVC] Dub + Original + Sub (rus, eng)

    Ответить на тему
     
    Автор Сообщение

    Light

    Создавать темы 25-Июн-2016 14:48

           

    [Цитировать]

    007: СПЕКТР / Spectre«The Dead Are Alive»-Страна: Великобритания, США
    Жанр: боевик, триллер, приключения
    Год выпуска: 2015
    Продолжительность: 02:28:06
    Перевод: Профессиональный (полное дублирование)
    Оригинальная аудиодорожка: английский
    Субтитры: русские (форс., полные) английские (форс., полные)
    Навигация по главам: есть
    Режиссер: Сэм Мендес / Sam Mendes
    В ролях: Дэниэл Крэйг (James Bond), Кристоф Вальц (Blofeld), Леа Сейду (Madeleine), Рэйф Файнс (M), Моника Беллуччи (Lucia), Бен Уишоу (Q), Наоми Харрис (Moneypenny), Дэйв Батиста (Hinx), Эндрю Скотт (C), Рори Киннер (Tanner), Еспер Кристенсен (Mr. White), Алессандро Кремона (Marco Sciarra)
    Описание: Зашифрованное послание из неизвестного источника выводит Бонда на след зловещей глобальной организации под кодовым названием СПЕКТР, в то время как М пытается спасти секретную разведывательную службу от ликвидации.- -Качество: BDRip-AVC (исходник - BDRemux|Spectre.2015.BluRay.Remux.1080p.AVC.DTS-HD.MA.7.1)
    Формат видео: MKV
    Видео: x264, 1056x444 (2.40:1), 23,976 fps, ~1993 kbps, 0.177 bit/pixel
    Аудио 1: 48 kHz, AC3 Dolby Digital, 3/2 (L,C,R,l,r) + LFE ch, ~384 kbps [русский]
    Аудио 2: 48 kHz, AC3 Dolby Digital, 3/2 (L,C,R,l,r) + LFE ch, ~384 kbps [английский]
    Формат субтитров: softsub (SRT)-MediaInfo | x264 log
    Format : Matroska
    Format version : Version 4 / Version 2
    File size : 2.91 GiB
    Duration : 2h 28mn
    Overall bit rate : 2 817 Kbps
    Movie name : 007: Спектр / Spectre (2015) :: AFM ::
    Encoded date : UTC 2016-06-02 13:14:07
    Writing application : mkvmerge v8.3.0 ('Over the Horizon') 32bit
    Writing library : libebml v1.3.1 + libmatroska v1.4.2
    Video
    ID : 1
    Format : AVC
    Format/Info : Advanced Video Codec
    Format profile : High@L4.1
    Format settings, CABAC : Yes
    Format settings, ReFrames : 12 frames
    Codec ID : V_MPEG4/ISO/AVC
    Duration : 2h 28mn
    Bit rate : 1 993 Kbps
    Width : 1 056 pixels
    Height : 444 pixels
    Display aspect ratio : 2.40:1
    Frame rate mode : Constant
    Frame rate : 23.976 fps
    Color space : YUV
    Chroma subsampling : 4:2:0
    Bit depth : 8 bits
    Scan type : Progressive
    Bits/(Pixel*Frame) : 0.177
    Stream size : 2.06 GiB (71%)
    Title : BDRip by AFM [RuTracker.org]
    Writing library : x264 core 148 r2665+53 6629127 t_mod_Custom [8-bit@all X86_64]
    Encoding settings : cabac=1 / ref=12 / deblock=1:-2:-2 / analyse=0x3:0x113 / me=umh / subme=11 / psy=1 / fade_compensate=0.00 / psy_rd=1.00:0.00 / mixed_ref=1 / me_range=32 / chroma_me=1 / trellis=2 / 8x8dct=1 / cqm=0 / deadzone=21,11 / fast_pskip=0 / chroma_qp_offset=-2 / threads=6 / lookahead_threads=1 / sliced_threads=0 / nr=0 / decimate=1 / interlaced=0 / bluray_compat=0 / constrained_intra=0 / fgo=0 / bframes=15 / b_pyramid=2 / b_adapt=2 / b_bias=0 / direct=1 / weightb=1 / open_gop=0 / weightp=2 / keyint=250 / keyint_min=23 / scenecut=40 / intra_refresh=0 / rc_lookahead=90 / rc=crf / mbtree=1 / crf=16.7000 / qcomp=0.65 / qpmin=0:0:0 / qpmax=69:69:69 / qpstep=4 / vbv_maxrate=50000 / vbv_bufsize=62500 / crf_max=0.0 / nal_hrd=none / filler=0 / ip_ratio=1.20 / aq=1:0.85 / aq-sensitivity=10.00 / aq-factor=1.00:1.00:1.00 / aq2=0 / aq3=0 / zones=203180,213071,q=30
    Language : English
    Default : Yes
    Forced : No
    Audio #1
    ID : 2
    Format : AC-3
    Format/Info : Audio Coding 3
    Mode extension : CM (complete main)
    Format settings, Endianness : Big
    Codec ID : A_AC3
    Duration : 2h 28mn
    Bit rate mode : Constant
    Bit rate : 384 Kbps
    Channel(s) : 6 channels
    Channel positions : Front: L C R, Side: L R, LFE
    Sampling rate : 48.0 KHz
    Compression mode : Lossy
    Stream size : 407 MiB (14%)
    Title : Dub, AC3 5.1, ~384 kbps
    Language : Russian
    Default : Yes
    Forced : No
    Audio #2
    ID : 3
    Format : AC-3
    Format/Info : Audio Coding 3
    Mode extension : CM (complete main)
    Format settings, Endianness : Big
    Codec ID : A_AC3
    Duration : 2h 28mn
    Bit rate mode : Constant
    Bit rate : 384 Kbps
    Channel(s) : 6 channels
    Channel positions : Front: L C R, Side: L R, LFE
    Sampling rate : 48.0 KHz
    Compression mode : Lossy
    Stream size : 407 MiB (14%)
    Title : Original, AC3 5.1, ~384 kbps
    Language : English
    Default : No
    Forced : No
    Text #1
    ID : 4
    Format : UTF-8
    Codec ID : S_TEXT/UTF8
    Codec ID/Info : UTF-8 Plain Text
    Title : forced
    Language : Russian
    Default : Yes
    Forced : Yes
    Text #2
    ID : 5
    Format : UTF-8
    Codec ID : S_TEXT/UTF8
    Codec ID/Info : UTF-8 Plain Text
    Title : full
    Language : Russian
    Default : No
    Forced : No
    Text #3
    ID : 6
    Format : UTF-8
    Codec ID : S_TEXT/UTF8
    Codec ID/Info : UTF-8 Plain Text
    Title : forced
    Language : English
    Default : No
    Forced : No
    Text #4
    ID : 7
    Format : UTF-8
    Codec ID : S_TEXT/UTF8
    Codec ID/Info : UTF-8 Plain Text
    Title : full
    Language : English
    Default : No
    Forced : No
    Menu
    00:00:00.000 : Chapter 1
    00:06:09.118 : Chapter 2
    00:13:04.784 : Chapter 3
    00:18:58.470 : Chapter 4
    00:24:46.776 : Chapter 5
    00:28:04.057 : Chapter 6
    00:32:15.558 : Chapter 7
    00:36:58.591 : Chapter 8
    00:41:56.639 : Chapter 9
    00:46:13.145 : Chapter 10
    00:50:51.923 : Chapter 11
    00:53:43.220 : Chapter 12
    01:00:21.367 : Chapter 13
    01:06:48.212 : Chapter 14
    01:10:58.963 : Chapter 15
    01:15:14.092 : Chapter 16
    01:18:55.647 : Chapter 17
    01:26:11.040 : Chapter 18
    01:29:39.999 : Chapter 19
    01:36:43.547 : Chapter 20
    01:41:44.389 : Chapter 21
    01:49:06.414 : Chapter 22
    01:55:52.820 : Chapter 23
    01:59:39.213 : Chapter 24
    02:04:19.743 : Chapter 25
    02:09:28.510 : Chapter 26
    02:14:05.662 : Chapter 27
    02:19:42.374 : Chapter 28

    x264

    x264 [info]: frame I:1567 Avg QP:15.30 size: 66612
    x264 [info]: frame P:40841 Avg QP:18.21 size: 23359
    x264 [info]: frame B:170663 Avg QP:20.03 size: 7119
    x264 [info]: consecutive B-frames: 1.8% 2.4% 5.6% 12.6% 12.7% 40.8% 7.2% 1.9% 2.5% 2.0% 2.2% 1.4% 2.7% 3.0% 1.0% 0.2%
    x264 [info]: mb I I16..4: 7.2% 72.3% 20.5%
    x264 [info]: mb P I16..4: 0.4% 7.0% 1.3% P16..4: 32.2% 40.6% 13.0% 0.0% 0.0% skip: 5.5%
    x264 [info]: mb B I16..4: 0.0% 0.7% 0.1% B16..8: 40.1% 20.3% 2.9% direct: 3.8% skip:32.0% L0:45.1% L1:46.4% BI: 8.5%
    x264 [info]: 8x8 transform intra:79.3% inter:62.0%
    x264 [info]: coded y,uvDC,uvAC intra: 92.8% 76.8% 50.1% inter: 23.3% 11.9% 1.8%
    x264 [info]: i16 v,h,dc,p: 14% 20% 8% 59%
    x264 [info]: i8 v,h,dc,ddl,ddr,vr,hd,vl,hu: 8% 8% 4% 11% 15% 14% 15% 12% 13%
    x264 [info]: i4 v,h,dc,ddl,ddr,vr,hd,vl,hu: 10% 8% 5% 9% 16% 14% 15% 11% 13%
    x264 [info]: i8c dc,h,v,p: 33% 31% 19% 17%
    x264 [info]: Weighted P-Frames: Y:97.3% UV:3.0%
    x264 [info]: ref P L0: 44.1% 8.9% 18.1% 7.0% 5.8% 4.0% 3.7% 2.0% 1.9% 1.5% 1.5% 1.3% 0.2% 0.0%
    x264 [info]: ref B L0: 68.0% 13.5% 6.9% 3.4% 2.4% 2.0% 1.5% 0.9% 0.7% 0.4% 0.2%
    x264 [info]: ref B L1: 90.1% 9.9%
    x264 [info]: kb/s:2046.46

    Скриншоты

    с названием

    ~~ Source ~~

    ~~ Rip ~~
    Скачать .torrent

    Скачать торрент-файл бесплатно и на максимальной скорости!

    Как скачивать? · Что такое торрент? · Рейтинг и ограничения

    !ВНИМАНИЕ!
    Сайт не распространяет и не хранит электронные версии произведений, а занимается лишь лишь предоставлением доступа к создаваемому пользователями каталогу ссылок на торрент-файлы, которые содержат только списки хеш-сумм, убедительная просьба с жалобами обращаться напрямую к пользователю. Файлы для обмена на трекере предоставлены пользователями сайта, и администрация не несёт ответственности за их содержание. Просьба не заливать файлы, защищенные авторскими правами, а также файлы нелегального содержания!


    _________________
    [Профиль] [ЛС]
    Показать сообщения:    
    Ответить на тему

    Текущее время: Сегодня, в 18:57

    Часовой пояс: GMT + 2



    Вы не можете начинать темы
    Вы не можете отвечать на сообщения
    Вы не можете редактировать свои сообщения
    Вы не можете удалять свои сообщения
    Вы не можете голосовать в опросах
    Вы не можете прикреплять файлы к сообщениям
    Вы не можете скачивать файлы