BitTorrentTracker PerecTracker.org
BitTorrentTracker PerecTracker.org
    
Регистрация  ·  Вход
 
 · 
Забыли пароль?

  • Гражданский иск / A Civil Action (Стивен Зеллиан / Steven Zaillian) [1998, США, драма, WEB-DL 720p] MVO (R1) + DVO (Премьер Видео Фильм) + Original (Eng) + Sub (Rus, Eng)

    Ответить на тему
     
    Автор Сообщение

    Light

    Создавать темы 24-Июн-2016 22:30

           

    [Цитировать]

    Гражданский иск / A Civil Action-Год выпуска: 1998
    Страна: США
    Студия: Paramount Pictures
    Жанр: драма
    Продолжительность: 01:54:49
    Перевод:
    • Профессиональный (многоголосый закадровый) R1
    • Профессиональный (двухголосый закадровый) Премьер Видео Фильм |VHS|
    Cубтитры: русские, английские
    Оригинальная аудиодорожка: английский
    -Режиссер: Стивен Зеллиан / Steven Zaillian-В ролях: Джон Траволта, Роберт Дювалл, Тони Шэлуб, Уильям Х. Мэйси, Желько Иванек, Брюс Норрис, Джон Литгоу, Кэтлин Куинлен, Питер Джекобсон, Мэри Мара и другие.-Роли озвучивали (Премьер Видео Фильм): Вадим Андреев, Людмила Ильина.-Описание: Адвокат Ян Шлихтман — циничный высокооплачиваемый юрист, берущийся только за очень прибыльные дела, которые он без труда решает вне зала суда. Его очередное дело обещает быть весьма легким. Но Шлихтман не подозревает, что грядущий судебный процесс превратится в тяжелое, бесконечное сражение, в котором адвокату придется поставить на карту свое состояние, репутацию и честь…-РЕЛИЗ ОТ: V.SERIJ2013-

    Спасибо

    • dima7272 - за аудиодорожку R1
    • Fikaloid - за оцифровку VHS-издания Премьер Видео Фильм
    • v.serij2013 (т.е., мне) - за обработку и сведение.
    -Качество: WEB-DL 720p |HDClub|
    Формат: MKV
    Видео кодек: H.264
    Аудио кодек: AC3
    Видео: H.264, 1280x716 (16:9), 23.976 fps, ~3987 kbps, 0.181 bit/pixel
    Аудио:
    • русская |R5|: AC3, 48 kHz, 6 ch, 384 kbps
      русская |Премьер Видео Фильм|: AC3, 48 kHz, 2 ch, 384 kbps
    • английская |Оригинал|: AC3, 48 kHz, 6 ch, 384 kbps
    -Сэмпл \ Кинопоиск-

    Скриншоты

    Media Info

    General
    Unique ID                      : 181386540159538699165834282944024018030 (0x8875C6E43E19934B84DA1BB80D0BFC6E)
    Complete name                  : E:\Video\HD\Movies (HD)\A Civil Action (1998) (WEB-DL 720p).mkv
    Format                         : Matroska
    Format version                 : Version 4 / Version 2
    File size                      : 4.21 GiB
    Duration                       : 1h 54mn
    Overall bit rate               : 5 243 Kbps
    Encoded date                   : UTC 2016-06-20 14:16:09
    Writing application            : mkvmerge v8.8.0 ('Wind at my back') 32bit
    Writing library                : libebml v1.3.3 + libmatroska v1.4.4
    DURATION                       : 01:48:15.594000000
    NUMBER_OF_FRAMES               : 1227
    NUMBER_OF_BYTES                : 47363
    _STATISTICS_WRITING_APP        : mkvmerge v8.8.0 ('Wind at my back') 32bit
    _STATISTICS_WRITING_DATE_UTC   : 2016-06-20 14:16:09
    _STATISTICS_TAGS               : BPS DURATION NUMBER_OF_FRAMES NUMBER_OF_BYTES
    Video
    ID                             : 1
    Format                         : AVC
    Format/Info                    : Advanced Video Codec
    Format profile                 : High@L3.1
    Format settings, CABAC         : No
    Format settings, ReFrames      : 2 frames
    Codec ID                       : V_MPEG4/ISO/AVC
    Duration                       : 1h 54mn
    Bit rate                       : 3 987 Kbps
    Width                          : 1 280 pixels
    Height                         : 716 pixels
    Display aspect ratio           : 16:9
    Frame rate mode                : Constant
    Frame rate                     : 23.976 fps
    Color space                    : YUV
    Chroma subsampling             : 4:2:0
    Bit depth                      : 8 bits
    Scan type                      : Progressive
    Bits/(Pixel*Frame)             : 0.181
    Stream size                    : 3.20 GiB (76%)
    Language                       : English
    Default                        : Yes
    Forced                         : No
    Color primaries                : BT.709
    Transfer characteristics       : BT.709
    Matrix coefficients            : BT.709
    Color range                    : Limited
    Audio #1
    ID                             : 2
    Format                         : AC-3
    Format/Info                    : Audio Coding 3
    Mode extension                 : CM (complete main)
    Format settings, Endianness    : Big
    Codec ID                       : A_AC3
    Duration                       : 1h 54mn
    Bit rate mode                  : Constant
    Bit rate                       : 384 Kbps
    Channel(s)                     : 6 channels
    Channel positions              : Front: L C R, Side: L R, LFE
    Sampling rate                  : 48.0 KHz
    Bit depth                      : 16 bits
    Compression mode               : Lossy
    Stream size                    : 315 MiB (7%)
    Title                          : MVO (R1)
    Language                       : Russian
    Default                        : Yes
    Forced                         : No
    Audio #2
    ID                             : 3
    Format                         : AC-3
    Format/Info                    : Audio Coding 3
    Mode extension                 : CM (complete main)
    Format settings, Endianness    : Big
    Codec ID                       : A_AC3
    Duration                       : 1h 54mn
    Bit rate mode                  : Constant
    Bit rate                       : 384 Kbps
    Channel(s)                     : 2 channels
    Channel positions              : Front: L R
    Sampling rate                  : 48.0 KHz
    Bit depth                      : 16 bits
    Compression mode               : Lossy
    Stream size                    : 315 MiB (7%)
    Title                          : DVO (Премьер Видео Фильм)
    Language                       : Russian
    Default                        : No
    Forced                         : No
    Audio #3
    ID                             : 4
    Format                         : AC-3
    Format/Info                    : Audio Coding 3
    Mode extension                 : CM (complete main)
    Format settings, Endianness    : Big
    Codec ID                       : A_AC3
    Duration                       : 1h 54mn
    Bit rate mode                  : Constant
    Bit rate                       : 384 Kbps
    Channel(s)                     : 6 channels
    Channel positions              : Front: L C R, Side: L R, LFE
    Sampling rate                  : 48.0 KHz
    Bit depth                      : 16 bits
    Compression mode               : Lossy
    Stream size                    : 315 MiB (7%)
    Title                          : Original
    Language                       : English
    Default                        : No
    Forced                         : No
    Text #1
    ID                             : 5
    Format                         : UTF-8
    Codec ID                       : S_TEXT/UTF8
    Codec ID/Info                  : UTF-8 Plain Text
    Language                       : Russian
    Default                        : No
    Forced                         : No
    Text #2
    ID                             : 6
    Format                         : UTF-8
    Codec ID                       : S_TEXT/UTF8
    Codec ID/Info                  : UTF-8 Plain Text
    Language                       : English
    Default                        : No
    Forced                         : No
    Menu
    00:00:00.000                   : en:Chapter 1
    00:07:18.000                   : en:Chapter 2
    00:15:42.000                   : en:Chapter 3
    00:23:57.000                   : en:Chapter 4
    00:30:59.000                   : en:Chapter 5
    00:39:47.000                   : en:Chapter 6
    00:48:00.000                   : en:Chapter 7
    00:56:36.000                   : en:Chapter 8
    01:04:36.000                   : en:Chapter 9
    01:12:21.000                   : en:Chapter 10
    01:21:41.000                   : en:Chapter 11
    01:30:35.000                   : en:Chapter 12
    01:35:25.000                   : en:Chapter 13
    01:41:54.000                   : en:Chapter 14
    01:49:41.000                   : en:Chapter 15
    -
    Скачать .torrent

    Скачать торрент-файл бесплатно и на максимальной скорости!

    Как скачивать? · Что такое торрент? · Рейтинг и ограничения

    !ВНИМАНИЕ!
    Сайт не распространяет и не хранит электронные версии произведений, а занимается лишь лишь предоставлением доступа к создаваемому пользователями каталогу ссылок на торрент-файлы, которые содержат только списки хеш-сумм, убедительная просьба с жалобами обращаться напрямую к пользователю. Файлы для обмена на трекере предоставлены пользователями сайта, и администрация не несёт ответственности за их содержание. Просьба не заливать файлы, защищенные авторскими правами, а также файлы нелегального содержания!


    _________________
    [Профиль] [ЛС]
    Показать сообщения:    
    Ответить на тему

    Текущее время: Сегодня, в 09:58

    Часовой пояс: GMT + 2



    Вы не можете начинать темы
    Вы не можете отвечать на сообщения
    Вы не можете редактировать свои сообщения
    Вы не можете удалять свои сообщения
    Вы не можете голосовать в опросах
    Вы не можете прикреплять файлы к сообщениям
    Вы не можете скачивать файлы