BitTorrentTracker PerecTracker.org
BitTorrentTracker PerecTracker.org
    
Регистрация  ·  Вход
 
 · 
Забыли пароль?

  • Агенты А.Н.К.Л. / The Man from U.N.C.L.E. (Гай Ричи / Guy Ritchie) [2015, США, Великобритания, боевик, комедия, приключения, BDRemux 1080p] Dub (BD EUR) + 2x VO (Есарев, Матвеев) + Sub Rus, Eng + Original Eng Dolby Atmos

    Ответить на тему
     
    Автор Сообщение

    Light

    Создавать темы 24-Июн-2016 14:14

           

    [Цитировать]

    Агенты А.Н.К.Л. / The Man from U.N.C.L.E.«Герои высшего класса»-Страна: США, Великобритания
    Студия: Davis Entertainment, Warner Bros. Pictures
    Жанр: боевик, комедия, приключения
    Год выпуска: 2015
    Продолжительность: 01:56:29-Перевод: Профессиональный (дублированный) BD EUR
    Перевод 2: Одноголосый закадровый (Д. Есарев)
    Перевод 3: Одноголосый закадровый (А. Матвеев)
    Cубтитры: русские форсированные+полные, английские
    Оригинальная аудиодорожка: английский-Режиссер: Гай Ричи / Guy Ritchie
    В ролях: Генри Кавилл, Арми Хаммер, Алисия Викандер, Элизабет Дебики, Хью Грант, Лука Кальвани, Сильвестр Грот, Джаред Харрис, Кристиан Беркель, Миша Кузнецов, Марианна Ди Мартино, Джулиан Майкл Деустер, Андреа Каглиши, Риккардо Калваниз, Питер Старк, Дэвид Менкин, Пабло Скола, Чезаре Таурази, Риккардо Фламмини
    Описание: Наполеон Соло — агент ЦРУ, на счету которого огромное количество успешно проведенных операций. Он считается одним из лучших секретных агентов во всем мире и с ним может сравниться только один человек — самый молодой и перспективный агент КГБ, Илья Курякин. Их противостояние переросло в настоящую войну в которой никто не собирается уступать. Однако обстоятельства складываются так, что непримиримые враги вынуждены стать напарниками. Это происходит после того как спецслужбы двух стран обнаруживают международную преступную организацию, которой удалось создать ядерную бомбу…-Доп. информация: BD Remux w. Dolby Atmos
    Меню: нет
    -
    Тип релиза: BDRemux 1080p
    Контейнер: m2ts
    Видео: MPEG-4 AVC Video 25939 kbps 1080p / 23,976 fps / 16:9 / High Profile 4.1
    Аудио: Russian: 48 kHz, AC3, 3/2 (L,C,R,l,r) + LFE ch, ~448.00 kbps - дубляж
    Аудио 2: Russian: 48 kHz, 24-bit, DTS-HD MA 7.1, ~4248.00 kbps (DTS Core: 5.1 / 48 kHz / 1509 kbps / 24-bit) - Есарев
    Аудио 3: Russian: 48 kHz, 24-bit, DTS-HD MA 7.1, ~4337.00 kbps (DTS Core: 5.1 / 48 kHz / 1509 kbps / 24-bit) - Матвеев
    Аудио 4: English: 48 kHz, 24 bit, Dolby TrueHD Atmos 7.1, ~4737 kbps (AC3 Embedded: 5.1-EX / 48 kHz / 384 kbps / DN -4dB)
    Формат субтитров: prerendered (PGS)-

    MediaInfo

    Общее
    Идентификатор : 1 (0x1)
    Полное имя : E:\Torrents\Video\The.Man.from.U.N.C.L.E.2015.Bluray.1080p.TrueHD-7.1.Atmos.x264\The.Man.from.U.N.C.L.E.2015.Bluray.1080p.TrueHD-7.1.Atmos.x264.m2ts
    Формат : BDAV
    Формат/Информация : Blu-ray Video
    Размер файла : 36,8 Гбайт
    Продолжительность : 1 ч. 56 м.
    Режим общего битрейта : Переменный
    Общий поток : 45,3 Мбит/сек
    Максимальный общий битрейт : 35,5 Мбит/сек
    Видео
    Идентификатор : 4113 (0x1011)
    Идентификатор меню : 1 (0x1)
    Формат : AVC
    Формат/Информация : Advanced Video Codec
    Профиль формата : High@L4.1
    Параметр CABAC формата : Да
    Параметр ReFrames формата : 2 кадра
    Параметр GOP формата : M=1, N=10
    Идентификатор кодека : 27
    Продолжительность : 1 ч. 56 м.
    Вид битрейта : Переменный
    Ширина : 1920 пикселей
    Высота : 1080 пикселей
    Соотношение сторон : 16:9
    Частота кадров : 23,976 (24000/1001) кадра/сек
    Цветовое пространство : YUV
    Субдискретизация насыщенности : 4:2:0
    Битовая глубина : 8 бит
    Тип развёртки : Прогрессивная
    Аудио #1
    Идентификатор : 4352 (0x1100)
    Идентификатор меню : 1 (0x1)
    Формат : AC-3
    Формат/Информация : Audio Coding 3
    Расширение режима : CM (complete main)
    Параметр Endianness формата : Big
    Идентификатор кодека : 129
    Продолжительность : 1 ч. 56 м.
    Вид битрейта : Постоянный
    Битрейт : 448 Кбит/сек
    Каналы : 6 каналов
    Расположение каналов : Front: L C R, Side: L R, LFE
    Частота : 48,0 КГц
    Частота кадров : 31,250 кадров/сек (1536 spf)
    Метод сжатия : С потерями
    Размер потока : 373 Мбайт (1%)
    Язык : Russian
    Аудио #2
    Идентификатор : 4353 (0x1101)
    Идентификатор меню : 1 (0x1)
    Формат : DTS
    Формат/Информация : Digital Theater Systems
    Профиль формата : MA / Core
    Режим : 16
    Параметр Endianness формата : Big
    Режим смешивания : Stream extension
    Идентификатор кодека : 134
    Продолжительность : 1 ч. 56 м.
    Вид битрейта : Переменный / Постоянный
    Битрейт : Неизвестно / 1509 Кбит/сек
    Каналы : 8 каналов / 6 каналов
    Расположение каналов : Front: L C R, Side: L R, Back: L R, LFE / Front: L C R, Side: L R, LFE
    Частота : 48,0 КГц
    Частота кадров : 93,750 кадра/сек (512 spf)
    Битовая глубина : 24 бит
    Метод сжатия : Без потерь / Lossy
    Язык : Russian
    Аудио #3
    Идентификатор : 4354 (0x1102)
    Идентификатор меню : 1 (0x1)
    Формат : DTS
    Формат/Информация : Digital Theater Systems
    Профиль формата : MA / Core
    Режим : 16
    Параметр Endianness формата : Big
    Режим смешивания : Stream extension
    Идентификатор кодека : 134
    Продолжительность : 1 ч. 56 м.
    Вид битрейта : Переменный / Постоянный
    Битрейт : Неизвестно / 1509 Кбит/сек
    Каналы : 8 каналов / 6 каналов
    Расположение каналов : Front: L C R, Side: L R, Back: L R, LFE / Front: L C R, Side: L R, LFE
    Частота : 48,0 КГц
    Частота кадров : 93,750 кадра/сек (512 spf)
    Битовая глубина : 24 бит
    Метод сжатия : Без потерь / Lossy
    Язык : Russian
    Аудио #4
    Идентификатор : 4355 (0x1103)
    Идентификатор меню : 1 (0x1)
    Формат : Atmos / TrueHD / AC-3
    Расширение режима : CM (complete main)
    Параметр Endianness формата : Big
    Режим смешивания : Stream extension
    Идентификатор кодека : 131
    Продолжительность : 1 ч. 56 м.
    Вид битрейта : Переменный / Постоянный
    Битрейт : 384 Кбит/сек
    Максимальный битрейт : 7545 Кбит/сек
    Каналы : Object Based / 8 каналов / 6 каналов
    Расположение каналов : Object Based / Front: L C R, Side: L R, Back: L R, LFE / Front: L C R, Side: L R, LFE
    Частота : / 48,0 КГц / 48,0 КГц
    Частота кадров : 31,250 кадров/сек (1536 spf)
    Размер потока : 320 Мбайт (1%)
    Язык : English
    Текст #1
    Идентификатор : 4608 (0x1200)
    Идентификатор меню : 1 (0x1)
    Формат : PGS
    Идентификатор кодека : 144
    Язык : Russian
    Текст #2
    Идентификатор : 4609 (0x1201)
    Идентификатор меню : 1 (0x1)
    Формат : PGS
    Идентификатор кодека : 144
    Язык : Russian
    Текст #3
    Идентификатор : 4610 (0x1202)
    Идентификатор меню : 1 (0x1)
    Формат : PGS
    Идентификатор кодека : 144
    Язык : English

    Скриншоты

    Скачать .torrent

    Скачать торрент-файл бесплатно и на максимальной скорости!

    Как скачивать? · Что такое торрент? · Рейтинг и ограничения

    !ВНИМАНИЕ!
    Сайт не распространяет и не хранит электронные версии произведений, а занимается лишь лишь предоставлением доступа к создаваемому пользователями каталогу ссылок на торрент-файлы, которые содержат только списки хеш-сумм, убедительная просьба с жалобами обращаться напрямую к пользователю. Файлы для обмена на трекере предоставлены пользователями сайта, и администрация не несёт ответственности за их содержание. Просьба не заливать файлы, защищенные авторскими правами, а также файлы нелегального содержания!


    _________________
    [Профиль] [ЛС]
    Показать сообщения:    
    Ответить на тему

    Текущее время: Сегодня, в 06:37

    Часовой пояс: GMT + 2



    Вы не можете начинать темы
    Вы не можете отвечать на сообщения
    Вы не можете редактировать свои сообщения
    Вы не можете удалять свои сообщения
    Вы не можете голосовать в опросах
    Вы не можете прикреплять файлы к сообщениям
    Вы не можете скачивать файлы