BitTorrentTracker PerecTracker.org
BitTorrentTracker PerecTracker.org
    
Регистрация  ·  Вход
 
 · 
Забыли пароль?

  • Столкновение / Crash (Пол Хаггис / Paul Haggis) [2004, Германия, США, драма, BDRip 1080p] [Режиссёрская версия / Director\'s Cut] Dub + 2x DVO (Tycoon, Гланц и Казакова) + AVO (Гаврилов) + VO (Киреев) + Sub Rus, Eng (Full, forced) + Original Eng

    Ответить на тему
     
    Автор Сообщение

    Light

    Создавать темы 24-Июн-2016 14:13

           

    [Цитировать]

    Столкновение / Crash / Режиссёрская версия / Director's Cut
    Страна: Германия, США
    Студия: Bob Yari Productions, DEJ Productions, Blackfriars Bridge Films
    Жанр: драма
    Год выпуска: 2004
    Продолжительность: 01:55:01
    Перевод 1: Профессиональный (дублированный) R5 + вставки Профессиональный (двухголосый закадровый) П. Гланц и Т. Казакова
    Перевод 2: Профессиональный (двухголосый закадровый) Tycoon
    Перевод 3: Профессиональный (двухголосый закадровый) П. Гланц и Т. Казакова
    Перевод 4: Авторский (одноголосый закадровый) А. Гаврилов
    Перевод 5: Одноголосый закадровый А. Киреев
    Cубтитры: русские (полные), английские (полные), английские (форсированые)
    Оригинальная аудиодорожка: английский
    Режиссер: Пол Хаггис / Paul Haggis
    В ролях: Дон Чидл, Мэтт Диллон, Райан Филипп, Терренс Ховард, Сандра Буллок, Тэнди Ньютон, Брендан Фрейзер, Майкл Пенья, Шон Тоуб, Лудакрис
    Описание: Закон и преступление, порядок и беспредел, защитник и жертва - неизбежное противостояние и столкновение. Полицейские - порядок, законопослушные граждане - закон. Но все ли граждане, слывущие добропорядочными, соблюдают законы, и всем ли представителям закона стоит доверять? Прикрываясь значком полицейского, они вершат беззаконие и из праведников превращаются в изощренных насильников.- -Сэмпл: https://yadi.sk/i/-x6pt_JUskQ5q
    Тип релиза: BDRip 1080p [SA89]
    Контейнер: MKV
    Видео: h.264, 1918x814, 23.976 fps, 17500 kbps
    Аудио #1: Russian: AC3 5.1, 48 kHz, 384 kbps avg |Дубляж, R5 + вставки П. Гланц и Т. Казакова|
    Аудио #2: Russian: DTS 5.1, 48 kHz/16-bit, 1536 kbps avg |Двухголосый закадровый, Tycoon|
    Аудио #3: Russian: DTS 5.1, 48 kHz/16-bit, 1536 kbps avg |Двухголосый закадровый, П. Гланц и Т. Казакова|
    Аудио #4: Russian: DTS-ES 6.1, 48 kHz/24-bit, 1536 kbps avg |Одноголосый закадровый, А. Гаврилов|
    Аудио #5: Russian: DTS 5.1, 48 kHz/16-bit, 1536 kbps avg |Одноголосый закадровый, А. Киреев|
    Аудио #6: English: DTS 5.1, 48 kHz/16-bit, 1536 kbps avg |Оригинал|
    Аудио #7: English: AC3 2.0, 48 kHz, 192 kbps avg |Commentary by Don Cheadle, Paul Haggis & Robert Moresco|
    Формат субтитров: softsub (SRT)

    MediaInfo

    Complete name : E:\Crash.2004.Director's.Cut.Hybrid.1080p.BluRay.5xRus.Eng.HDLUB-SA89.mkv
    Format : Matroska
    Format version : Version 4 / Version 2
    File size : 20.6 GiB
    Duration : 1h 55mn
    Overall bit rate : 25.7 Mbps
    Movie name : Crash [Director's Cut] (2004) - Encode by ScarAce1989
    Encoded date : UTC 2016-06-21 13:38:20
    Writing application : mkvmerge v9.2.0 ('Photograph') 64bit
    Writing library : libebml v1.3.3 + libmatroska v1.4.4
    Cover : Yes
    Attachments : cover.jpg
    Video
    ID : 1
    Format : AVC
    Format/Info : Advanced Video Codec
    Format profile : High@L4.1
    Format settings, CABAC : Yes
    Format settings, ReFrames : 5 frames
    Codec ID : V_MPEG4/ISO/AVC
    Duration : 1h 55mn
    Bit rate : 17.5 Mbps
    Width : 1 918 pixels
    Height : 814 pixels
    Display aspect ratio : 2.35:1
    Frame rate mode : Constant
    Frame rate : 23.976 (24000/1001) fps
    Color space : YUV
    Chroma subsampling : 4:2:0
    Bit depth : 8 bits
    Scan type : Progressive
    Bits/(Pixel*Frame) : 0.468
    Stream size : 14.1 GiB (68%)
    Writing library : x264 core 148 r2694 3b70645
    Encoding settings : cabac=1 / ref=5 / deblock=1:-3:-3 / analyse=0x3:0x133 / me=umh / subme=10 / psy=1 / psy_rd=1.00:0.00 / mixed_ref=1 / me_range=24 / chroma_me=1 / trellis=2 / 8x8dct=1 / cqm=0 / deadzone=21,11 / fast_pskip=1 / chroma_qp_offset=-2 / threads=6 / lookahead_threads=1 / sliced_threads=0 / nr=0 / decimate=1 / interlaced=0 / bluray_compat=0 / constrained_intra=0 / bframes=8 / b_pyramid=2 / b_adapt=2 / b_bias=0 / direct=3 / weightb=1 / open_gop=0 / weightp=2 / keyint=250 / keyint_min=25 / scenecut=40 / intra_refresh=0 / rc_lookahead=60 / rc=crf / mbtree=0 / crf=17.5 / qcomp=0.60 / qpmin=0 / qpmax=69 / qpstep=4 / vbv_maxrate=62500 / vbv_bufsize=78125 / crf_max=0.0 / nal_hrd=none / filler=0 / ip_ratio=1.40 / pb_ratio=1.30 / aq=1:0.80
    Language : English
    Default : Yes
    Forced : No
    Audio #1
    ID : 2
    Format : AC-3
    Format/Info : Audio Coding 3
    Mode extension : CM (complete main)
    Format settings, Endianness : Big
    Codec ID : A_AC3
    Duration : 1h 55mn
    Bit rate mode : Constant
    Bit rate : 384 Kbps
    Channel(s) : 6 channels
    Channel positions : Front: L C R, Side: L R, LFE
    Sampling rate : 48.0 KHz
    Frame rate : 31.250 fps (1536 spf)
    Compression mode : Lossy
    Stream size : 316 MiB (1%)
    Title : Дубляж, Мосфильм-мастер R5
    Language : Russian
    Default : Yes
    Forced : No
    Audio #2
    ID : 3
    Format : DTS
    Format/Info : Digital Theater Systems
    Mode : 16
    Format settings, Endianness : Big
    Codec ID : A_DTS
    Duration : 1h 55mn
    Bit rate mode : Constant
    Bit rate : 1 509 Kbps
    Channel(s) : 6 channels
    Channel positions : Front: L C R, Side: L R, LFE
    Sampling rate : 48.0 KHz
    Frame rate : 93.750 fps (512 spf)
    Bit depth : 16 bits
    Compression mode : Lossy
    Stream size : 1.21 GiB (6%)
    Title : Tycoon
    Language : Russian
    Default : No
    Forced : No
    Audio #3
    ID : 4
    Format : DTS
    Format/Info : Digital Theater Systems
    Mode : 16
    Format settings, Endianness : Big
    Codec ID : A_DTS
    Duration : 1h 55mn
    Bit rate mode : Constant
    Bit rate : 1 509 Kbps
    Channel(s) : 6 channels
    Channel positions : Front: L C R, Side: L R, LFE
    Sampling rate : 48.0 KHz
    Frame rate : 93.750 fps (512 spf)
    Bit depth : 16 bits
    Compression mode : Lossy
    Stream size : 1.21 GiB (6%)
    Title : П. Гланц и И. Королёва
    Language : Russian
    Default : No
    Forced : No
    Audio #4
    ID : 5
    Format : DTS
    Format/Info : Digital Theater Systems
    Format profile : ES Discrete / Core
    Mode : 16
    Format settings, Endianness : Big
    Codec ID : A_DTS
    Duration : 1h 55mn
    Bit rate mode : Constant
    Bit rate : 1 509 Kbps
    Channel(s) : 7 channels / 6 channels
    Channel positions : Front: L C R, Side: L R, Back: C, LFE / Front: L C R, Side: L R, LFE
    Sampling rate : 48.0 KHz
    Frame rate : 93.750 fps (512 spf)
    Bit depth : 24 bits
    Compression mode : Lossy
    Stream size : 1.21 GiB (6%)
    Title : Гаврилов
    Language : Russian
    Default : No
    Forced : No
    Audio #5
    ID : 6
    Format : DTS
    Format/Info : Digital Theater Systems
    Mode : 16
    Format settings, Endianness : Big
    Codec ID : A_DTS
    Duration : 1h 55mn
    Bit rate mode : Constant
    Bit rate : 1 509 Kbps
    Channel(s) : 6 channels
    Channel positions : Front: L C R, Side: L R, LFE
    Sampling rate : 48.0 KHz
    Frame rate : 93.750 fps (512 spf)
    Bit depth : 16 bits
    Compression mode : Lossy
    Stream size : 1.21 GiB (6%)
    Title : Киреев
    Language : Russian
    Default : No
    Forced : No
    Audio #6
    ID : 7
    Format : DTS
    Format/Info : Digital Theater Systems
    Mode : 16
    Format settings, Endianness : Big
    Codec ID : A_DTS
    Duration : 1h 55mn
    Bit rate mode : Constant
    Bit rate : 1 509 Kbps
    Channel(s) : 6 channels
    Channel positions : Front: L C R, Side: L R, LFE
    Sampling rate : 48.0 KHz
    Frame rate : 93.750 fps (512 spf)
    Bit depth : 16 bits
    Compression mode : Lossy
    Stream size : 1.21 GiB (6%)
    Language : English
    Default : No
    Forced : No
    Audio #7
    ID : 8
    Format : AC-3
    Format/Info : Audio Coding 3
    Format profile : Dolby Digital
    Mode extension : CM (complete main)
    Format settings, Endianness : Big
    Codec ID : A_AC3
    Duration : 1h 55mn
    Bit rate mode : Constant
    Bit rate : 192 Kbps
    Channel(s) : 2 channels
    Channel positions : Front: L R
    Sampling rate : 48.0 KHz
    Frame rate : 31.250 fps (1536 spf)
    Compression mode : Lossy
    Stream size : 158 MiB (1%)
    Title : Commentary: Don Cheadle, Paul Haggis & Robert Moresco
    Language : English
    Default : No
    Forced : No
    Text #1
    ID : 9
    Format : UTF-8
    Codec ID : S_TEXT/UTF8
    Codec ID/Info : UTF-8 Plain Text
    Duration : 1h 48mn
    Bit rate : 95 bps
    Count of elements : 1209
    Stream size : 76.0 KiB (0%)
    Language : Russian
    Default : No
    Forced : No
    Text #2
    ID : 10
    Format : UTF-8
    Codec ID : S_TEXT/UTF8
    Codec ID/Info : UTF-8 Plain Text
    Duration : 1h 47mn
    Bit rate : 64 bps
    Count of elements : 1306
    Stream size : 50.8 KiB (0%)
    Language : English
    Default : No
    Forced : No
    Text #3
    ID : 11
    Format : UTF-8
    Codec ID : S_TEXT/UTF8
    Codec ID/Info : UTF-8 Plain Text
    Duration : 1h 29mn
    Bit rate : 0 bps
    Count of elements : 8
    Stream size : 218 Bytes (0%)
    Title : Forced
    Language : English
    Default : No
    Forced : No
    Menu
    00:00:00.000 : en:Worlds Collide
    00:05:53.986 : en:Stereotyping
    00:10:02.501 : en:Joy Ride
    00:15:24.123 : en:Not the Vehicle
    00:22:35.887 : en:Monsters in the Closet
    00:30:35.667 : en:Not Going to Let Go
    00:33:26.704 : en:Just Cause
    00:38:29.140 : en:Back and Forward
    00:43:38.449 : en:You're the Expert
    00:49:26.530 : en:Bad Day
    00:55:22.485 : en:Negligence
    01:00:26.289 : en:Protect and Serve
    01:06:32.154 : en:Situation Is Complicated
    01:12:20.002 : en:Hitching a Ride
    01:16:48.637 : en:Friend of Mine
    01:21:15.036 : en:My Angel
    01:24:11.413 : en:Good Son
    01:27:08.923 : en:Just Pulling Over
    01:32:29.410 : en:My Love
    01:36:35.456 : en:To Protect Us
    01:41:15.903 : en:Long Night
    01:44:41.775 : en:I Love You
    01:47:39.319 : en:Free to Go
    01:50:59.252 : en:End Credits

    Source vs Encode




    Скриншоты

    Скачать .torrent

    Скачать торрент-файл бесплатно и на максимальной скорости!

    Как скачивать? · Что такое торрент? · Рейтинг и ограничения

    !ВНИМАНИЕ!
    Сайт не распространяет и не хранит электронные версии произведений, а занимается лишь лишь предоставлением доступа к создаваемому пользователями каталогу ссылок на торрент-файлы, которые содержат только списки хеш-сумм, убедительная просьба с жалобами обращаться напрямую к пользователю. Файлы для обмена на трекере предоставлены пользователями сайта, и администрация не несёт ответственности за их содержание. Просьба не заливать файлы, защищенные авторскими правами, а также файлы нелегального содержания!


    _________________
    [Профиль] [ЛС]
    Показать сообщения:    
    Ответить на тему

    Текущее время: Сегодня, в 10:24

    Часовой пояс: GMT + 2



    Вы не можете начинать темы
    Вы не можете отвечать на сообщения
    Вы не можете редактировать свои сообщения
    Вы не можете удалять свои сообщения
    Вы не можете голосовать в опросах
    Вы не можете прикреплять файлы к сообщениям
    Вы не можете скачивать файлы