BitTorrentTracker PerecTracker.org
BitTorrentTracker PerecTracker.org
    
Регистрация  ·  Вход
 
 · 
Забыли пароль?

  • Начинается прекрасный день / Кто получит бриллиант? / Comes a Bright Day (Саймон Эбауд / Simon Aboud) [2012, Великобритания, мелодрама, WEB-DL 720p] 2x Sub (Rus, Eng) + Original Eng

    Ответить на тему
     
    Автор Сообщение

    Light

    Создавать темы 24-Июн-2016 14:13

           

    [Цитировать]

    Начинается прекрасный день / Кто получит бриллиант? / Comes a Bright Day«Always look for the hidden gem»
    Страна: Великобритания
    Жанр: мелодрама
    Год выпуска: 2012
    Продолжительность: 01:30:46
    Перевод: Субтитры
    Cубтитры: русские [Саша и Маша], английские [SDH]
    Оригинальная аудиодорожка: английский
    -
    Режиссер: Саймон Эбауд / Simon Aboud
    В ролях: Крэйг Робертс, Имоджен Путс, Тимоти Сполл, Кевин МакКидд, Джозеф Алтин, Энтони Уэльс, Джофф Белл, Бен Кура, Сибил МакГуинн, Ли Уитлок
    -
    Описание: Сэм Смит работает портье в дорогом лондонском отеле и мечтает о собственном ресторане. Однажды волей судьбы он оказывается в ювелирном магазине, где работает красавица Мэри Брайт. Пока стеснительный Сэм собирается заговорить с очаровательной девушкой, в магазине начинается дерзкое ограбление. Оказавшись заложниками вооруженных бандитов, молодые люди получают возможность раскрыть друг другу свои истинные чувства.

    Тип релиза: WEB-DL 720p
    Контейнер: MKV
    Видео: H.264 / NTSC 16:9 / 1280x546 (2,35:1) / 4127 kbps / 23,976 fps / 0.246 bit/pixel / High@L3.1
    Аудио: English / Dolby Digital Audio / 5.1 Ch / 48 kHz / 384 kbps / 16 bit / Original
    Формат субтитров: softsub (SRT)
    Навигация по главам: есть

    Фрагмент субтитров

    650
    00:39:44,546 --> 00:39:45,545
    Это твои?
    651
    00:39:45,547 --> 00:39:47,614
    Очень хорошие.
    652
    00:39:52,453 --> 00:39:56,056
    Вам нравится?
    653
    00:39:56,058 --> 00:39:59,493
    О, да.
    654
    00:39:59,495 --> 00:40:02,396
    О, полагаю, здесь не поспоришь?
    655
    00:40:02,398 --> 00:40:04,631
    Это подарок, вы видите.
    656
    00:40:04,633 --> 00:40:06,500
    Правильно.
    657
    00:40:06,502 --> 00:40:09,136
    У тебя есть всё.
    658
    00:40:09,138 --> 00:40:11,171
    Счастлив теперь?
    659
    00:40:11,173 --> 00:40:13,006
    Ага.
    660
    00:40:13,008 --> 00:40:15,709
    В экстазе.
    661
    00:40:15,711 --> 00:40:18,412
    По меньшей мере, часы
    были не твои, Сэм.
    662
    00:40:18,414 --> 00:40:20,046
    Да, верно.
    663
    00:40:20,048 --> 00:40:21,681
    Видно, вы не представляете,
    что мне босс за них сделает.
    664
    00:40:28,756 --> 00:40:31,091
    Не подскажете, где сержант
    Брайан?
    665
    00:40:31,093 --> 00:40:32,192
    Вон там, сэр.
    666
    00:40:32,194 --> 00:40:33,427
    Спасибо.

    MediaInfo

    Общее
    Уникальный идентификатор                 : 210832989933351092681032229353990897016 (0x9E9CF4F4A0DFAC9C8D4CCCD40D7BBD78)
    Полное имя                               : N:\WEB-DL 720p\Comes a Bright Day.2012.WEB-DL.720p.mkv
    Формат                                   : Matroska
    Версия формата                           : Version 4 / Version 2
    Размер файла                             : 2,86 Гбайт
    Продолжительность                        : 1 ч. 30 м.
    Общий поток                              : 4513 Кбит/сек
    Дата кодирования                         : UTC 2016-06-23 15:12:57
    Программа кодирования                    : mkvmerge v9.2.0 ('Photograph') 64bit
    Библиотека кодирования                   : libebml v1.3.3 + libmatroska v1.4.4
    Видео
    Идентификатор                            : 1
    Формат                                   : AVC
    Формат/Информация                        : Advanced Video Codec
    Профиль формата                          : High@L3.1
    Параметр CABAC формата                   : Нет
    Параметр ReFrames формата                : 2 кадра
    Идентификатор кодека                     : V_MPEG4/ISO/AVC
    Продолжительность                        : 1 ч. 30 м.
    Битрейт                                  : 4127 Кбит/сек
    Ширина                                   : 1280 пикселей
    Высота                                   : 546 пикселей
    Соотношение сторон                       : 2,35:1
    Режим частоты кадров                     : Постоянный
    Частота кадров                           : 23,976 (23976/1000) кадра/сек
    Цветовое пространство                    : YUV
    Субдискретизация насыщенности            : 4:2:0
    Битовая глубина                          : 8 бит
    Тип развёртки                            : Прогрессивная
    Бит/(Пиксели*Кадры)                      : 0.246
    Размер потока                            : 2,62 Гбайт (91%)
    Язык                                     : English
    Default                                  : Да
    Forced                                   : Нет
    Цветовой диапазон                        : Limited
    Основные цвета                           : BT.709
    Характеристики трансфера                 : BT.709
    Коэффициенты матрицы                     : BT.709
    Аудио
    Идентификатор                            : 2
    Формат                                   : AC-3
    Формат/Информация                        : Audio Coding 3
    Расширение режима                        : CM (complete main)
    Параметр Endianness формата              : Big
    Идентификатор кодека                     : A_AC3
    Продолжительность                        : 1 ч. 30 м.
    Вид битрейта                             : Постоянный
    Битрейт                                  : 384 Кбит/сек
    Каналы                                   : 6 каналов
    Расположение каналов                     : Front: L C R, Side: L R, LFE
    Частота                                  : 48,0 КГц
    Частота кадров                           : 31,250 кадров/сек (1536 spf)
    Метод сжатия                             : С потерями
    Размер потока                            : 249 Мбайт (9%)
    Заголовок                                : Original
    Язык                                     : English
    Default                                  : Да
    Forced                                   : Нет
    Текст #1
    Идентификатор                            : 3
    Формат                                   : UTF-8
    Идентификатор кодека                     : S_TEXT/UTF8
    Идентификатор кодека/Информация          : UTF-8 Plain Text
    Продолжительность                        : 1 ч. 29 м.
    Битрейт                                  : 103 бит/сек
    Count of elements                        : 1467
    Размер потока                            : 67,8 Кбайт (0%)
    Заголовок                                : перевод Саша и Маша
    Язык                                     : Russian
    Default                                  : Да
    Forced                                   : Нет
    Текст #2
    Идентификатор                            : 4
    Формат                                   : UTF-8
    Идентификатор кодека                     : S_TEXT/UTF8
    Идентификатор кодека/Информация          : UTF-8 Plain Text
    Продолжительность                        : 1 ч. 29 м.
    Битрейт                                  : 61 бит/сек
    Count of elements                        : 1498
    Размер потока                            : 40,0 Кбайт (0%)
    Заголовок                                : Original / SDH
    Язык                                     : English
    Default                                  : Нет
    Forced                                   : Нет
    Меню
    00:00:00.000                             : en:Chapter 1
    00:12:51.000                             : en:Chapter 2
    00:19:33.000                             : en:Chapter 3
    00:32:37.000                             : en:Chapter 4
    00:40:25.000                             : en:Chapter 5
    00:51:59.000                             : en:Chapter 6
    01:00:44.000                             : en:Chapter 7
    01:14:13.000                             : en:Chapter 8
    01:27:39.000                             : en:Chapter 9

    Скриншоты

    Скачать .torrent

    Скачать торрент-файл бесплатно и на максимальной скорости!

    Как скачивать? · Что такое торрент? · Рейтинг и ограничения

    !ВНИМАНИЕ!
    Сайт не распространяет и не хранит электронные версии произведений, а занимается лишь лишь предоставлением доступа к создаваемому пользователями каталогу ссылок на торрент-файлы, которые содержат только списки хеш-сумм, убедительная просьба с жалобами обращаться напрямую к пользователю. Файлы для обмена на трекере предоставлены пользователями сайта, и администрация не несёт ответственности за их содержание. Просьба не заливать файлы, защищенные авторскими правами, а также файлы нелегального содержания!


    _________________
    [Профиль] [ЛС]
    Показать сообщения:    
    Ответить на тему

    Текущее время: Сегодня, в 20:28

    Часовой пояс: GMT + 2



    Вы не можете начинать темы
    Вы не можете отвечать на сообщения
    Вы не можете редактировать свои сообщения
    Вы не можете удалять свои сообщения
    Вы не можете голосовать в опросах
    Вы не можете прикреплять файлы к сообщениям
    Вы не можете скачивать файлы