BitTorrentTracker PerecTracker.org
BitTorrentTracker PerecTracker.org
    
Регистрация  ·  Вход
 
 · 
Забыли пароль?

  • Няньки (Ашот Кещян) [2012, Комедия, BDRip]

    Ответить на тему
     
    Автор Сообщение

    Flirldrerve

    Создавать темы 23-Июн-2016 21:20

           

    [Цитировать]

    Няньки
    -Жанр: Комедия
    Год выпуска: 2012
    Продолжительность: 01:33:31-Режиссёр: Ашот Кещян-В ролях: Николай Наумов, Арарат Кещян, Аглая Шиловская, Людмила Артемьева, Олеся Железняк, Ангелина Добророднова, Глеб Сердюков, Илья Костюков, Дитер Брандекер, Михаэль Бараль-Описание: Валентина — жесткая, хладнокровная владелица крупной туристической фирмы, которой предстоит решение сложной задачи в стране, где женщину, независимо от профессионализма, не может ждать успех в бизнесе — Турции. На помощь она вызывает работников своего уральского филиала Диму и Мишу — безынициативных лодырей, по несчастливой случайности оказавшихся единственными сотрудниками мужского пола.
    Предполагаемый отпуск за границей оборачивается для безответственных весельчаков не только последним шансом доказать свою профпригодность и избежать позорного увольнения, но и представляет угрозу для здоровья и жизни: по роковому стечению обстоятельств Миша и Дима остаются один на один с тремя неуправляемыми детьми Валентины.
    А, как известно, беда не приходит одна, поэтому, когда приезжает мама Валентины якобы присмотреть за внуками, задачи для молодых людей усложняются появлением практически еще одного ребенка, который требует за собой не меньшего присмотра, чем реальные дети. Теперь друзьям придется разбираться и с детьми, и с бабушкой, и с немецкими конкурентами, и все это — в попытках не провалить судьбоносную сделку. Смогут ли наши герои справиться с заданием и завоевать расположение Валентины и ее детей?
    - -Релиз от - -Автор рипа: The next-Качество видео: BDRip (источник: / Blu-ray Disc / 1080p)
    Формат видео: AVI
    Видео: 720x304 (2.35:1), 24 fps, XviD build 72, 1772 kbps, 0.34 bit/pixel
    Аудио: 48 kHz, AC3 Dolby Digital, 3/2 (L,C,R,l,r) + LFE ch, ~448.00 kbps

    MediaInfo

    General
    Complete name : Downloads\Nyanki.2012.RUS.BDRip.XviD.AC3.-HQCLUB.avi
    Format : AVI
    Format/Info : Audio Video Interleave
    File size : 1.46 GiB
    Duration : 1h 33mn
    Overall bit rate : 2 229 Kbps
    Movie name : Íÿíüêè (2012) BDRip
    Director : The next
    Writing application : VirtualDubMod 1.5.10.2 (build 2542/release)
    Copyright : www.hqclub.net
    Comment : 02.06.2012
    Video #0
    ID : 0
    Format : MPEG-4 Visual
    Format profile : Advanced Simple@L5
    Format settings, BVOP : 1
    Format settings, QPel : No
    Format settings, GMC : No warppoints
    Format settings, Matrix : Custom
    Codec ID : XVID
    Codec ID/Hint : XviD
    Duration : 1h 33mn
    Bit rate : 1 772 Kbps
    Width : 720 pixels
    Height : 304 pixels
    Display aspect ratio : 2.35:1
    Frame rate : 24.000 fps
    Color space : YUV
    Chroma subsampling : 4:2:0
    Bit depth : 8 bits
    Scan type : Progressive
    Compression mode : Lossy
    Bits/(Pixel*Frame) : 0.337
    Stream size : 1.16 GiB (79%)
    Writing library : XviD 72
    Audio #1
    ID : 1
    Format : AC-3
    Format/Info : Audio Coding 3
    Mode extension : CM (complete main)
    Format settings, Endianness : Big
    Codec ID : 2000
    Duration : 1h 33mn
    Bit rate mode : Constant
    Bit rate : 448 Kbps
    Channel(s) : 6 channels
    Channel positions : Front: L C R, Side: L R, LFE
    Sampling rate : 48.0 KHz
    Bit depth : 16 bits
    Compression mode : Lossy
    Stream size : 300 MiB (20%)
    Alignment : Split accross interleaves
    Interleave, duration : 42 ms (1.00 video frame)
    Interleave, preload duration : 500 ms

    Скриншот c названием фильма

    Скриншоты

    Скачать .torrent

    Скачать торрент-файл бесплатно и на максимальной скорости!

    Как скачивать? · Что такое торрент? · Рейтинг и ограничения

    !ВНИМАНИЕ!
    Сайт не распространяет и не хранит электронные версии произведений, а занимается лишь лишь предоставлением доступа к создаваемому пользователями каталогу ссылок на торрент-файлы, которые содержат только списки хеш-сумм, убедительная просьба с жалобами обращаться напрямую к пользователю. Файлы для обмена на трекере предоставлены пользователями сайта, и администрация не несёт ответственности за их содержание. Просьба не заливать файлы, защищенные авторскими правами, а также файлы нелегального содержания!


    _________________
    [Профиль] [ЛС]
    Показать сообщения:    
    Ответить на тему

    Текущее время: Сегодня, в 06:33

    Часовой пояс: GMT + 2



    Вы не можете начинать темы
    Вы не можете отвечать на сообщения
    Вы не можете редактировать свои сообщения
    Вы не можете удалять свои сообщения
    Вы не можете голосовать в опросах
    Вы не можете прикреплять файлы к сообщениям
    Вы не можете скачивать файлы