BitTorrentTracker PerecTracker.org
BitTorrentTracker PerecTracker.org
    
Регистрация  ·  Вход
 
 · 
Забыли пароль?

  • Город героев / Big Hero 6 (Дон Холл / Don Hall, Крис Уильямс / Chris Williams) [2014, США, фантастика, комедия, семейный, BDRip-AVC] Dub + Original Eng + Sub Rus, Eng

    Ответить на тему
     
    Автор Сообщение

    Flirldrerve

    Создавать темы 23-Июн-2016 17:15

           

    [Цитировать]

    Город героев / Big Hero 6
    Страна: США
    Жанр: фантастика, комедия, семейный
    Продолжительность: 01:41:52
    Год выпуска: 2014
    Перевод: Профессиональный (дублированный)
    Русские субтитры: есть--Режиссёр: Дон Холл / Don Hall, Крис Уильямс / Chris Williams--Роли озвучивали: Райан Поттер, Скотт Эдсит, Дэниэл Хенни, ТиДжей Миллер, Джейми Чанг, Дэймон Уайанс мл., Дженезис Родригез, Джеймс Кромуэлл, Алан Тьюдик, Майя Рудольф, Абрахам Бенруби, Кэти Лоус, Билли Буш...--Роли дублировали: Даниил Рагин, Максим Сергеев, Игорь Сергеев, Валерий Смекалов, Аделина Червякова, Артём Николаев, Юлия Рудина, Юрий Лазарев, Валерий Соловьев, Елена Терновая, Мария Цветкова-Овсянникова.--Описание: Юный Хиро Хамада — прирожденный изобретатель и гений конструирования роботов. Вместе со старшим братом Тадаши они воплощают в жизнь самые передовые идеи в Техническом университете города будущего Сан-Франсокио. После серии загадочных событий друзья оказываются в центре коварного заговора. Отчаявшись, Хиро решает использовать веселого и добродушного экспериментального робота Бэймакса, перепрограммировав его в неуязвимую боевую машину.--Доп. информация: | | | Сэмпл |--Качество: BDRip-AVC Big.Hero.6.2014.1080p.BluRay.AVC.DTS-HD.MA.7.1
    Формат: MKV
    Видео: AVC, 736x308, (2.40:1), 900 kbps, 23.976 fps, 0.165 bit/pixel
    Аудио 1: AАС-HE, 48.0 KHz, 64 Kbps, 2 channels
    Аудио 2: AАС-HE, 48.0 KHz, 64 Kbps, 2 channels
    Субтитры: Русские, Українські, English, English (SDH)

    Скриншоты

    Подробные технические данные

    x264

    raw [info]: 736x308p 1:1 @ 24000/1001 fps (cfr)
    x264 [info]: using SAR=1/1
    x264 [info]: using cpu capabilities: MMX2 SSE2Fast SSSE3 SSE4.2 AVX
    x264 [info]: profile High, level 3.1
    x264 [info]: frame I:1252 Avg QP:15.37 size: 38025
    x264 [info]: frame P:34436 Avg QP:19.44 size: 9805
    x264 [info]: frame B:110869 Avg QP:21.32 size: 2719
    x264 [info]: consecutive B-frames: 3.0% 2.8% 9.5% 30.3% 16.2% 30.1% 3.5% 1.5% 0.7% 0.8% 0.3% 0.6% 0.2% 0.1% 0.1% 0.2%
    x264 [info]: mb I I16..4: 5.0% 59.5% 35.5%
    x264 [info]: mb P I16..4: 1.8% 8.7% 3.5% P16..4: 38.5% 19.3% 16.2% 1.2% 0.5% skip:10.5%
    x264 [info]: mb B I16..4: 0.1% 0.8% 0.5% B16..8: 31.8% 9.4% 3.1% direct: 3.7% skip:50.5% L0:40.7% L1:44.8% BI:14.5%
    x264 [info]: 8x8 transform intra:60.9% inter:54.3%
    x264 [info]: direct mvs spatial:96.5% temporal:3.5%
    x264 [info]: coded y,uvDC,uvAC intra: 77.6% 83.0% 59.9% inter: 15.4% 16.2% 8.6%
    x264 [info]: i16 v,h,dc,p: 17% 18% 7% 58%
    x264 [info]: i8 v,h,dc,ddl,ddr,vr,hd,vl,hu: 14% 11% 5% 8% 12% 11% 13% 11% 14%
    x264 [info]: i4 v,h,dc,ddl,ddr,vr,hd,vl,hu: 23% 9% 4% 8% 12% 11% 12% 9% 12%
    x264 [info]: i8c dc,h,v,p: 33% 29% 20% 17%
    x264 [info]: Weighted P-Frames: Y:4.6% UV:3.1%
    x264 [info]: ref P L0: 53.7% 10.5% 12.8% 6.2% 4.4% 3.4% 2.7% 1.6% 1.3% 1.1% 0.9% 0.8% 0.6% 0.0% 0.0%
    x264 [info]: ref B L0: 76.3% 10.6% 5.1% 2.3% 1.7% 1.2% 1.0% 0.6% 0.5% 0.4% 0.2% 0.1%
    x264 [info]: ref B L1: 94.7% 5.3%
    x264 [info]: kb/s:898.74
    General
    Unique ID : 254620416578769388074149238982358266344 (0xBF8E1BC4F6158BABBEFC6DF89082F1E8)
    Complete name : Big Hero 6 (2014).mkv
    Format : Matroska
    Format version : Version 4 / Version 2
    File size : 749 MiB
    Duration : 1h 41mn
    Overall bit rate : 1 027 Kbps
    Movie name : Город героев / Big Hero 6 (2014)
    Encoded date : UTC 2016-06-23 13:31:53
    Writing application : mkvmerge v8.1.0 ('Psychedelic Postcard') 64bit
    Writing library : libebml v1.3.1 + libmatroska v1.4.2
    Cover : Yes
    Attachments : cover.jpg
    Video
    ID : 1
    Format : AVC
    Format/Info : Advanced Video Codec
    Format profile : High@L3.1
    Format settings, CABAC : Yes
    Format settings, ReFrames : 13 frames
    Codec ID : V_MPEG4/ISO/AVC
    Duration : 1h 41mn
    Bit rate : 899 Kbps
    Width : 736 pixels
    Height : 308 pixels
    Display aspect ratio : 2.40:1
    Frame rate mode : Constant
    Frame rate : 23.976 (24000/1001) fps
    Color space : YUV
    Chroma subsampling : 4:2:0
    Bit depth : 8 bits
    Scan type : Progressive
    Bits/(Pixel*Frame) : 0.165
    Stream size : 655 MiB (87%)
    Title : Big Hero 6 (2014) By optik.1557
    Writing library : x264 core 148 r2692kMod 64f4e24
    Encoding settings : cabac=1 / ref=13 / deblock=1:-2:-1 / analyse=0x3:0x133 / me=umh / subme=10 / psy=1 / fade_compensate=0.00 / psy_rd=1.05:0.03 / mixed_ref=1 / me_range=48 / chroma_me=1 / trellis=2 / 8x8dct=1 / cqm=0 / deadzone=21,11 / fast_pskip=0 / chroma_qp_offset=-3 / threads=6 / lookahead_threads=1 / sliced_threads=0 / nr=0 / decimate=0 / interlaced=0 / bluray_compat=0 / constrained_intra=0 / fgo=0 / bframes=15 / b_pyramid=2 / b_adapt=2 / b_bias=0 / direct=3 / weightb=1 / open_gop=0 / weightp=2 / keyint=250 / keyint_min=23 / scenecut=40 / intra_refresh=0 / rc_lookahead=60 / rc=2pass / mbtree=0 / bitrate=899 / ratetol=1.0 / qcomp=0.60 / qpmin=0 / qpmax=69 / qpstep=4 / cplxblur=20.0 / qblur=0.5 / vbv_maxrate=14000 / vbv_bufsize=14000 / nal_hrd=none / filler=0 / ip_ratio=1.40 / pb_ratio=1.30 / aq=2:0.90
    Language : English
    Default : Yes
    Forced : No
    Audio #1
    ID : 2
    Format : AAC
    Format/Info : Advanced Audio Codec
    Format profile : HE-AAC / LC
    Codec ID : A_AAC
    Duration : 1h 41mn
    Bit rate : 62.8 Kbps
    Channel(s) : 2 channels
    Channel(s)_Original : 22 channels
    Channel positions : Front: 13, Side: L R, Back: 7
    Sampling rate : 48.0 KHz / 24.0 KHz
    Frame rate : 23.438 fps (1024 spf)
    Compression mode : Lossy
    Stream size : 45.7 MiB (6%)
    Title : Дубляж. 64 Kbps
    Language : Russian
    Default : Yes
    Forced : No
    Audio #2
    ID : 3
    Format : AAC
    Format/Info : Advanced Audio Codec
    Format profile : HE-AAC / LC
    Codec ID : A_AAC
    Duration : 1h 41mn
    Bit rate : 62.8 Kbps
    Channel(s) : 2 channels
    Channel positions : Front: L R
    Sampling rate : 48.0 KHz / 24.0 KHz
    Frame rate : 23.438 fps (1024 spf)
    Compression mode : Lossy
    Stream size : 45.7 MiB (6%)
    Title : Original. 64 Kbps
    Language : English
    Default : No
    Forced : No
    Text #1
    ID : 4
    Format : UTF-8
    Codec ID : S_TEXT/UTF8
    Codec ID/Info : UTF-8 Plain Text
    Duration : 1h 40mn
    Bit rate : 76 bps
    Count of elements : 1243
    Stream size : 55.8 KiB (0%)
    Language : Russian
    Default : No
    Forced : No
    Text #2
    ID : 5
    Format : UTF-8
    Codec ID : S_TEXT/UTF8
    Codec ID/Info : UTF-8 Plain Text
    Duration : 1h 32mn
    Bit rate : 1 bps
    Count of elements : 22
    Stream size : 883 Bytes (0%)
    Title : Forced
    Language : Ukrainian
    Default : No
    Forced : No
    Text #3
    ID : 6
    Format : UTF-8
    Codec ID : S_TEXT/UTF8
    Codec ID/Info : UTF-8 Plain Text
    Duration : 1h 40mn
    Bit rate : 76 bps
    Count of elements : 1280
    Stream size : 56.3 KiB (0%)
    Language : Ukrainian
    Default : No
    Forced : No
    Text #4
    ID : 7
    Format : UTF-8
    Codec ID : S_TEXT/UTF8
    Codec ID/Info : UTF-8 Plain Text
    Duration : 1h 39mn
    Bit rate : 48 bps
    Count of elements : 1325
    Stream size : 35.3 KiB (0%)
    Language : English
    Default : No
    Forced : No
    Text #5
    ID : 8
    Format : UTF-8
    Codec ID : S_TEXT/UTF8
    Codec ID/Info : UTF-8 Plain Text
    Duration : 1h 40mn
    Bit rate : 59 bps
    Count of elements : 1740
    Stream size : 43.9 KiB (0%)
    Title : SDH
    Language : English
    Default : No
    Forced : No
    Menu
    00:00:00.000 : en: 1. Hustle
    00:07:15.685 : en: 2. Nerd School
    00:14:37.835 : en: 3. Showcase
    00:21:49.183 : en: 4. Tragedy
    00:24:32.888 : en: 5. A New Friend
    00:29:34.731 : en: 6. Being Helpful
    00:36:58.091 : en: 7. Upgrade
    00:44:18.322 : en: 8. The Chase
    00:50:49.088 : en: 9. Fred's House
    00:54:33.020 : en:10. Training
    01:00:44.140 : en:11. Secret Lair
    01:07:12.612 : en:12. Big Reveal
    01:11:54.644 : en:13. Putting It All Together
    01:16:26.665 : en:14. Saving The Day!
    01:24:44.162 : en:15. The Portal
    01:31:52.757 : en:16. End Credits
    Скачать .torrent

    Скачать торрент-файл бесплатно и на максимальной скорости!

    Как скачивать? · Что такое торрент? · Рейтинг и ограничения

    !ВНИМАНИЕ!
    Сайт не распространяет и не хранит электронные версии произведений, а занимается лишь лишь предоставлением доступа к создаваемому пользователями каталогу ссылок на торрент-файлы, которые содержат только списки хеш-сумм, убедительная просьба с жалобами обращаться напрямую к пользователю. Файлы для обмена на трекере предоставлены пользователями сайта, и администрация не несёт ответственности за их содержание. Просьба не заливать файлы, защищенные авторскими правами, а также файлы нелегального содержания!


    _________________
    [Профиль] [ЛС]
    Показать сообщения:    
    Ответить на тему

    Текущее время: Сегодня, в 22:51

    Часовой пояс: GMT + 2



    Вы не можете начинать темы
    Вы не можете отвечать на сообщения
    Вы не можете редактировать свои сообщения
    Вы не можете удалять свои сообщения
    Вы не можете голосовать в опросах
    Вы не можете прикреплять файлы к сообщениям
    Вы не можете скачивать файлы