BitTorrentTracker PerecTracker.org
BitTorrentTracker PerecTracker.org
    
Регистрация  ·  Вход
 
 · 
Забыли пароль?

  • Время ведьм / Season of the Witch (Доминик Сена / Dominic Sena) [2011, США, фэнтези, боевик, приключения, BDRip 720p] Dub + 2x AVO (Живов, Немахов) + 3x VO (Замез, Киреев, Дасевич) + Original (Eng) + Sub (Rus, Eng)

    Ответить на тему
     
    Автор Сообщение

    Light

    Создавать темы 23-Июн-2016 17:15

           

    [Цитировать]

    Время ведьм / Season of the Witch«Not all souls can be saved»-Страна: США
    Жанр: фэнтези, боевик, приключения
    Год выпуска: 2011
    Продолжительность: 01:34:54-Перевод №1: Профессиональный (дублированный) - BD CEE
    Перевод №2: Авторский (одноголосый закадровый) - Юрий Живов
    Перевод №3: Авторский (одноголосый закадровый) - Юрий Немахов
    Перевод №4: Одноголосый закадровый - Вячеслав Замез
    Перевод №5: Одноголосый закадровый - Антон Киреев
    Перевод №6: Одноголосый закадровый - Александр Дасевич
    Оригинальная аудиодорожка: English
    Cубтитры: Русские (форсированные + полные + полные - Дмитрий "Гоблин" Пучков), English (full)
    Навигация по главам: присутствует - 16 глав-Режиссер: Доминик Сена / Dominic Sena
    В ролях: Николас Кейдж, Рон Перлман, Стивен Кэмпбелл Мур, Стивен Грэм, Ульрих Томсен, Клер Фой, Роберт Шиэн, Кристофер Ли, Ребека Кеннеди, Эндрю Хефлер...-Описание: XIV столетие. В Европе свирепствует чума. Виновницей смертоносной беды признают беззащитную девушку, подозревая ее в колдовстве. Умирающий кардинал просит рыцаря Бэймена доставить ведьму в далекое аббатство, где ее чары должны быть разрушены.
    Шестеро верховых и повозка с железной клеткой, в которой заточена обвиняемая, отправляются в опасное путешествие. Скоро рыцари осознают, их миловидная спутница действительно не человек, а исчадие ада.- -Качество видео: BDRip 720p | исх. BDRemux 1080p - thx: Jiraya87
    Формат: MKV-Видео: 1280x720 (16:9), 23.976 fps, H.264, 8166.95 kb/s, 0.358 bit/pixel
    Аудио №1: 48.0 kHz, AC3 Dolby Digital, 3/2 (L,C,R,l,r) + LFE ch, ~640 kbps avg | Профессиональный (дублированный) - BD CEE
    Аудио №2: 48.0 kHz, AC3 Dolby Digital, 3/2 (L,C,R,l,r) + LFE ch, ~640 kbps avg | Авторский (одноголосый закадровый) - Юрий Живов
    Аудио №3: 48.0 kHz, AC3 Dolby Digital, 3/2 (L,C,R,l,r) + LFE ch, ~640 kbps avg | Авторский (одноголосый закадровый) - Юрий Немахов
    Аудио №4: 48.0 kHz, AC3 Dolby Digital, 3/2 (L,C,R,l,r) + LFE ch, ~640 kbps avg | Одноголосый закадровый - Вячеслав Замез
    Аудио №5: 48.0 kHz, AC3 Dolby Digital, 3/2 (L,C,R,l,r) + LFE ch, ~640 kbps avg | Одноголосый закадровый - Антон Киреев
    Аудио №6: 48.0 kHz, AC3 Dolby Digital, 3/2 (L,C,R,l,r) + LFE ch, ~640 kbps avg | Одноголосый закадровый - Александр Дасевич
    Аудио №7: 48.0 kHz, AC3 Dolby Digital, 3/2 (L,C,R,l,r) + LFE ch, ~640 kbps avg | English
    Субтитры №1: Русские (форсированные) | *.srt
    Субтитры №2: Русские (полные) | *.srt
    Субтитры №3: Русские (полные - Дмитрий "Гоблин" Пучков) | *.srt
    Субтитры №4: English (full) | *.srt-

    MediaInfo

    General
    Unique ID : 183162238000757252014586714429005241519 (0x89CBC38DF201D3A88D98F57D076C1CAF)
    Complete name : D:\Фильмы\Рипы\Season of the Witch.2011.BDRip 720p.eFK tRuAVC.mkv
    Format : Matroska
    Format version : Version 4 / Version 2
    File size : 8.40 GiB
    Duration : 1h 34mn
    Overall bit rate : 12.7 Mbps
    Movie name : Время ведьм / Season of the Witch (2011) - Release for rutracker
    Encoded date : UTC 2016-06-22 06:56:17
    Writing application : mkvmerge v9.2.0 ('Photograph') 64bit
    Writing library : libebml v1.3.3 + libmatroska v1.4.4
    Attachements : cover.png
    DURATION : 01:34:59.424000000
    NUMBER_OF_FRAMES : 178107
    NUMBER_OF_BYTES : 455953920
    _STATISTICS_WRITING_APP : mkvmerge v9.2.0 ('Photograph') 64bit
    _STATISTICS_WRITING_DATE_UT : 2016-06-22 06:56:17
    _STATISTICS_TAGS : BPS DURATION NUMBER_OF_FRAMES NUMBER_OF_BYTES
    Video
    ID : 1
    Format : AVC
    Format/Info : Advanced Video Codec
    Format profile : High@L4.1
    Format settings, CABAC : Yes
    Format settings, ReFrames : 9 frames
    Codec ID : V_MPEG4/ISO/AVC
    Duration : 1h 34mn
    Bit rate : 7 921 Kbps
    Width : 1 280 pixels
    Height : 720 pixels
    Display aspect ratio : 16:9
    Frame rate mode : Constant
    Frame rate : 23.976 fps
    Color space : YUV
    Chroma subsampling : 4:2:0
    Bit depth : 8 bits
    Scan type : Progressive
    Bits/(Pixel*Frame) : 0.358
    Stream size : 5.26 GiB (63%)
    Title : eFK tRuAVC
    Writing library : x264 core 148 r2692kMod 64f4e24
    Encoding settings : cabac=1 / ref=9 / deblock=1:-3:-3 / analyse=0x3:0x113 / me=umh / subme=11 / psy=1 / fade_compensate=0.00 / psy_rd=1.11:0.00 / mixed_ref=1 / me_range=48 / chroma_me=1 / trellis=2 / 8x8dct=1 / cqm=0 / deadzone=21,11 / fast_pskip=0 / chroma_qp_offset=-2 / threads=12 / lookahead_threads=3 / sliced_threads=0 / nr=0 / decimate=1 / interlaced=0 / bluray_compat=0 / constrained_intra=0 / fgo=0 / bframes=16 / b_pyramid=2 / b_adapt=2 / b_bias=0 / direct=3 / weightb=1 / open_gop=0 / weightp=2 / keyint=250 / keyint_min=23 / scenecut=40 / intra_refresh=0 / rc_lookahead=60 / rc=crf / mbtree=0 / crf=17.2000 / qcomp=0.60 / qpmin=0 / qpmax=69 / qpstep=4 / vbv_maxrate=62500 / vbv_bufsize=78125 / crf_max=0.0 / nal_hrd=none / filler=0 / ip_ratio=1.40 / pb_ratio=1.30 / aq=3:0.85
    Language : English
    Default : Yes
    Forced : No
    Color range : Limited
    Color primaries : BT.709
    Transfer characteristics : BT.709
    Matrix coefficients : BT.709
    DURATION : 01:34:55.023000000
    NUMBER_OF_FRAMES : 136544
    NUMBER_OF_BYTES : 5813873799
    _STATISTICS_WRITING_APP : mkvmerge v9.2.0 ('Photograph') 64bit
    _STATISTICS_WRITING_DATE_UT : 2016-06-22 06:56:17
    _STATISTICS_TAGS : BPS DURATION NUMBER_OF_FRAMES NUMBER_OF_BYTES
    Audio #1
    ID : 2
    Format : AC-3
    Format/Info : Audio Coding 3
    Mode extension : CM (complete main)
    Format settings, Endianness : Big
    Codec ID : A_AC3
    Duration : 1h 34mn
    Bit rate mode : Constant
    Bit rate : 640 Kbps
    Channel(s) : 6 channels
    Channel positions : Front: L C R, Side: L R, LFE
    Sampling rate : 48.0 KHz
    Compression mode : Lossy
    Stream size : 435 MiB (5%)
    Title : Профессиональный (дублированный) - BD CEE
    Language : Russian
    Default : Yes
    Forced : No
    Audio #2
    ID : 3
    Format : AC-3
    Format/Info : Audio Coding 3
    Mode extension : CM (complete main)
    Format settings, Endianness : Big
    Codec ID : A_AC3
    Duration : 1h 34mn
    Bit rate mode : Constant
    Bit rate : 640 Kbps
    Channel(s) : 6 channels
    Channel positions : Front: L C R, Side: L R, LFE
    Sampling rate : 48.0 KHz
    Compression mode : Lossy
    Stream size : 435 MiB (5%)
    Title : Авторский (одноголосый закадровый) - Юрий Живов
    Language : Russian
    Default : No
    Forced : No
    Audio #3
    ID : 4
    Format : AC-3
    Format/Info : Audio Coding 3
    Mode extension : CM (complete main)
    Format settings, Endianness : Big
    Codec ID : A_AC3
    Duration : 1h 34mn
    Bit rate mode : Constant
    Bit rate : 640 Kbps
    Channel(s) : 6 channels
    Channel positions : Front: L C R, Side: L R, LFE
    Sampling rate : 48.0 KHz
    Compression mode : Lossy
    Stream size : 435 MiB (5%)
    Title : Авторский (одноголосый закадровый) - Юрий Немахов
    Language : Russian
    Default : No
    Forced : No
    Audio #4
    ID : 5
    Format : AC-3
    Format/Info : Audio Coding 3
    Mode extension : CM (complete main)
    Format settings, Endianness : Big
    Codec ID : A_AC3
    Duration : 1h 34mn
    Bit rate mode : Constant
    Bit rate : 640 Kbps
    Channel(s) : 6 channels
    Channel positions : Front: L C R, Side: L R, LFE
    Sampling rate : 48.0 KHz
    Compression mode : Lossy
    Stream size : 435 MiB (5%)
    Title : Одноголосый закадровый - Вячеслав Замез
    Language : Russian
    Default : No
    Forced : No
    Audio #5
    ID : 6
    Format : AC-3
    Format/Info : Audio Coding 3
    Mode extension : CM (complete main)
    Format settings, Endianness : Big
    Codec ID : A_AC3
    Duration : 1h 34mn
    Bit rate mode : Constant
    Bit rate : 640 Kbps
    Channel(s) : 6 channels
    Channel positions : Front: L C R, Side: L R, LFE
    Sampling rate : 48.0 KHz
    Compression mode : Lossy
    Stream size : 435 MiB (5%)
    Title : Одноголосый закадровый - Антон Киреев
    Language : Russian
    Default : No
    Forced : No
    Audio #6
    ID : 7
    Format : AC-3
    Format/Info : Audio Coding 3
    Mode extension : CM (complete main)
    Format settings, Endianness : Big
    Codec ID : A_AC3
    Duration : 1h 34mn
    Bit rate mode : Constant
    Bit rate : 640 Kbps
    Channel(s) : 6 channels
    Channel positions : Front: L C R, Side: L R, LFE
    Sampling rate : 48.0 KHz
    Compression mode : Lossy
    Stream size : 435 MiB (5%)
    Title : Одноголосый закадровый - Александр Дасевич
    Language : Russian
    Default : No
    Forced : No
    Audio #7
    ID : 8
    Format : AC-3
    Format/Info : Audio Coding 3
    Mode extension : CM (complete main)
    Format settings, Endianness : Big
    Codec ID : A_AC3
    Duration : 1h 34mn
    Bit rate mode : Constant
    Bit rate : 640 Kbps
    Channel(s) : 6 channels
    Channel positions : Front: L C R, Side: L R, LFE
    Sampling rate : 48.0 KHz
    Compression mode : Lossy
    Stream size : 435 MiB (5%)
    Language : English
    Default : No
    Forced : No
    Text #1
    ID : 9
    Format : UTF-8
    Codec ID : S_TEXT/UTF8
    Codec ID/Info : UTF-8 Plain Text
    Title : форсированные
    Language : Russian
    Default : Yes
    Forced : No
    Text #2
    ID : 10
    Format : UTF-8
    Codec ID : S_TEXT/UTF8
    Codec ID/Info : UTF-8 Plain Text
    Title : полные
    Language : Russian
    Default : No
    Forced : No
    Text #3
    ID : 11
    Format : UTF-8
    Codec ID : S_TEXT/UTF8
    Codec ID/Info : UTF-8 Plain Text
    Title : полные - Дмитрий "Гоблин" Пучков
    Language : Russian
    Default : No
    Forced : No
    Text #4
    ID : 12
    Format : UTF-8
    Codec ID : S_TEXT/UTF8
    Codec ID/Info : UTF-8 Plain Text
    Title : full
    Language : English
    Default : No
    Forced : No
    Menu
    00:00:00.000 : :Chapter 01
    00:05:34.751 : :Chapter 02
    00:12:02.930 : :Chapter 03
    00:16:29.196 : :Chapter 04
    00:23:05.592 : :Chapter 05
    00:28:58.236 : :Chapter 06
    00:33:58.661 : :Chapter 07
    00:39:42.213 : :Chapter 08
    00:44:59.363 : :Chapter 09
    00:48:58.685 : :Chapter 10
    00:55:39.794 : :Chapter 11
    01:03:07.909 : :Chapter 12
    01:08:13.631 : :Chapter 13
    01:14:18.287 : :Chapter 14
    01:23:47.897 : :Chapter 15
    01:27:06.721 : :Chapter 16

    x264 log

    x264 [info]: frame I:920 Avg QP:16.92 size:162598
    x264 [info]: frame P:29403 Avg QP:18.21 size: 72633
    x264 [info]: frame B:106221 Avg QP:19.82 size: 33220
    x264 [info]: consecutive B-frames: 2.1% 4.6% 8.0% 16.9% 14.1% 37.9% 5.8% 1.8% 1.7% 1.1% 1.3% 0.9% 0.9% 0.9% 0.4% 0.4% 1.2%
    x264 [info]: mb I I16..4: 7.0% 80.8% 12.2%
    x264 [info]: mb P I16..4: 0.4% 20.7% 1.0% P16..4: 23.9% 32.5% 14.4% 0.0% 0.0% skip: 7.0%
    x264 [info]: mb B I16..4: 0.1% 3.6% 0.1% B16..8: 35.5% 24.2% 6.0% direct: 8.3% skip:22.3% L0:48.0% L1:41.0% BI:11.1%
    x264 [info]: 8x8 transform intra:93.3% inter:57.8%
    x264 [info]: direct mvs spatial:99.9% temporal:0.1%
    x264 [info]: coded y,uvDC,uvAC intra: 96.3% 92.2% 79.3% inter: 42.9% 35.5% 11.4%
    x264 [info]: i16 v,h,dc,p: 54% 11% 11% 24%
    x264 [info]: i8 v,h,dc,ddl,ddr,vr,hd,vl,hu: 7% 6% 12% 11% 14% 13% 13% 11% 13%
    x264 [info]: i4 v,h,dc,ddl,ddr,vr,hd,vl,hu: 6% 5% 8% 10% 17% 14% 14% 12% 14%
    x264 [info]: i8c dc,h,v,p: 52% 16% 13% 19%
    x264 [info]: Weighted P-Frames: Y:12.0% UV:9.2%
    x264 [info]: ref P L0: 41.5% 7.8% 17.4% 8.5% 7.9% 6.1% 4.9% 2.7% 2.7% 0.4% 0.0%
    x264 [info]: ref B L0: 64.4% 13.8% 7.8% 4.4% 4.4% 2.9% 1.8% 0.5%
    x264 [info]: ref B L1: 92.7% 7.3%
    x264 [info]: kb/s:8166.95

    Screenshots

    Comparison

    Source

    Encode

    A.R.K.H.O.N
    Цитата:
    Цитата:

    • За чистый голос Вячеслава Замеза спасибо большое A.R.K.H.O.N.
    • Перевод Антона Киреева доступен благодаря содействии пользователей hdtracker, при участии Переулка Переводмана.
    • За перевод Юрия Немахова огромное спасибо пользователям форума hdtracker - Jiraya87, Guyver, v111o, Schmulke, Отон, denis_mgn_1987, Denis2251, GansAn, ZerR0R, Role, sawyer4, kondratzx, Xerman13, Brown15, nimph, Luka69, zeleniydzhan, HDKing, GaryH, arvideo.
    • За перевод Юрия Живова огромное спасибо пользователям форума hdtracker - Jiraya87 , Guyver, v111o, Xerman13, Schmulke, Letyoha3, foxlight, Отон, denis_mgn_1987, Denis2251, Role,kondratzx, Brown15, Диммон, nimph, Luka69, Видео, ultrajeka, GaryH, SavineX.
    Скачать .torrent

    Скачать торрент-файл бесплатно и на максимальной скорости!

    Как скачивать? · Что такое торрент? · Рейтинг и ограничения

    !ВНИМАНИЕ!
    Сайт не распространяет и не хранит электронные версии произведений, а занимается лишь лишь предоставлением доступа к создаваемому пользователями каталогу ссылок на торрент-файлы, которые содержат только списки хеш-сумм, убедительная просьба с жалобами обращаться напрямую к пользователю. Файлы для обмена на трекере предоставлены пользователями сайта, и администрация не несёт ответственности за их содержание. Просьба не заливать файлы, защищенные авторскими правами, а также файлы нелегального содержания!


    _________________
    [Профиль] [ЛС]
    Показать сообщения:    
    Ответить на тему

    Текущее время: Сегодня, в 12:44

    Часовой пояс: GMT + 2



    Вы не можете начинать темы
    Вы не можете отвечать на сообщения
    Вы не можете редактировать свои сообщения
    Вы не можете удалять свои сообщения
    Вы не можете голосовать в опросах
    Вы не можете прикреплять файлы к сообщениям
    Вы не можете скачивать файлы