BitTorrentTracker PerecTracker.org
BitTorrentTracker PerecTracker.org
    
Регистрация  ·  Вход
 
 · 
Забыли пароль?

  • Каждому своё / Everybody Wants Some!! (Ричард Линклейтер / Richard Linklater) [2016, США, комедия, WEB-DL 1080p] Dub (iTunes) + Original Eng

    Ответить на тему
     
    Автор Сообщение

    Light

    Создавать темы 23-Июн-2016 17:15

           

    [Цитировать]

    Каждому своё / Everybody Wants Some!!«Here for a Good Time Not a Long Time»
    Страна: США
    Жанр: комедия
    Год выпуска: 2016
    Продолжительность: 01:57:19
    Перевод: Профессиональный (дублированный) iTunes
    Cубтитры: нет
    Оригинальная аудиодорожка: английский
    -
    Режиссер: Ричард Линклейтер / Richard Linklater
    В ролях: Блейк Дженнер, Джастон Стрит, Райан Гузман, Тайлер Хэклин, Уайатт Расселл, Глен Пауэлл, Темпл Бэйкер, Дж. Куинтон Джонсон, Уилл Бриттейн, Кортни Тейлор
    -
    Описание: Фильм о первом вкусе свободы вчерашнего школьника, о первом годе в американском колледже 80-х годов, когда вырвавшиеся из-под крыла родителей подростки отчаянно наслаждаются жизнью. Любовь? Нет! Развлечения, сладость доступности, клубы, танцы, пляжи и девушки. Подростки забывают о последствиях, об ответственности за каждый свой шаг и просто открываются, насколько хватает фантазии. Для героя фильма, Джейка, все в новинку, но с каждым днем он все больше втягивается в фривольную жизнь первокурсника и погружается в бешеный водоворот порока и беззакония.

    Тип релиза: WEB-DL 1080p
    Контейнер: MKV
    Видео: H.264 / NTSC 16:9 / 1916x1076 (1,85:1) / 5121 kbps / 23,976 fps / 0.103 bit/pixel / High@L4
    Аудио 1: Russian / Dolby Digital Audio / 5.1 Ch / 48 kHz / 384 kbps / 16 bit / DUB
    Аудио 2: English / Dolby Digital Audio / 5.1 Ch / 48 kHz / 384 kbps / 16 bit / Original

    MediaInfo

    Общее
    Уникальный идентификатор                 : 248913149509577677421923733917051087478 (0xBB42EDC718BBD2C9A947E104E6636A76)
    Полное имя                               : N:\WEB-DL 1080p\Everybody Wants Some!!.2016.WEB-DL.1080p.mkv
    Формат                                   : Matroska
    Версия формата                           : Version 4 / Version 2
    Размер файла                             : 4,82 Гбайт
    Продолжительность                        : 1 ч. 57 м.
    Общий поток                              : 5884 Кбит/сек
    Дата кодирования                         : UTC 2016-06-22 16:13:29
    Программа кодирования                    : mkvmerge v9.2.0 ('Photograph') 64bit
    Библиотека кодирования                   : libebml v1.3.3 + libmatroska v1.4.4
    Видео
    Идентификатор                            : 1
    Формат                                   : AVC
    Формат/Информация                        : Advanced Video Codec
    Профиль формата                          : High@L4
    Параметр CABAC формата                   : Да
    Параметр ReFrames формата                : 4 кадра
    Идентификатор кодека                     : V_MPEG4/ISO/AVC
    Продолжительность                        : 1 ч. 57 м.
    Битрейт                                  : 5115 Кбит/сек
    Ширина                                   : 1916 пикселей
    Высота                                   : 1076 пикселей
    Соотношение сторон                       : 16:9
    Режим частоты кадров                     : Постоянный
    Частота кадров                           : 23,976 (24000/1001) кадра/сек
    Цветовое пространство                    : YUV
    Субдискретизация насыщенности            : 4:2:0
    Битовая глубина                          : 8 бит
    Тип развёртки                            : Прогрессивная
    Бит/(Пиксели*Кадры)                      : 0.103
    Размер потока                            : 4,19 Гбайт (87%)
    Язык                                     : English
    Default                                  : Да
    Forced                                   : Нет
    Цветовой диапазон                        : Limited
    Основные цвета                           : BT.709
    Характеристики трансфера                 : BT.709
    Коэффициенты матрицы                     : BT.709
    Аудио #1
    Идентификатор                            : 2
    Формат                                   : AC-3
    Формат/Информация                        : Audio Coding 3
    Расширение режима                        : CM (complete main)
    Параметр Endianness формата              : Big
    Идентификатор кодека                     : A_AC3
    Продолжительность                        : 1 ч. 57 м.
    Вид битрейта                             : Постоянный
    Битрейт                                  : 384 Кбит/сек
    Каналы                                   : 6 каналов
    Расположение каналов                     : Front: L C R, Side: L R, LFE
    Частота                                  : 48,0 КГц
    Частота кадров                           : 31,250 кадров/сек (1536 spf)
    Метод сжатия                             : С потерями
    Размер потока                            : 321 Мбайт (7%)
    Заголовок                                : DUB
    Язык                                     : Russian
    Default                                  : Да
    Forced                                   : Нет
    Аудио #2
    Идентификатор                            : 3
    Формат                                   : AC-3
    Формат/Информация                        : Audio Coding 3
    Расширение режима                        : CM (complete main)
    Параметр Endianness формата              : Big
    Идентификатор кодека                     : A_AC3
    Продолжительность                        : 1 ч. 57 м.
    Вид битрейта                             : Постоянный
    Битрейт                                  : 384 Кбит/сек
    Каналы                                   : 6 каналов
    Расположение каналов                     : Front: L C R, Side: L R, LFE
    Частота                                  : 48,0 КГц
    Частота кадров                           : 31,250 кадров/сек (1536 spf)
    Метод сжатия                             : С потерями
    Размер потока                            : 322 Мбайт (7%)
    Заголовок                                : Original
    Язык                                     : English
    Default                                  : Нет
    Forced                                   : Нет

    Скриншоты

    Скачать .torrent

    Скачать торрент-файл бесплатно и на максимальной скорости!

    Как скачивать? · Что такое торрент? · Рейтинг и ограничения

    !ВНИМАНИЕ!
    Сайт не распространяет и не хранит электронные версии произведений, а занимается лишь лишь предоставлением доступа к создаваемому пользователями каталогу ссылок на торрент-файлы, которые содержат только списки хеш-сумм, убедительная просьба с жалобами обращаться напрямую к пользователю. Файлы для обмена на трекере предоставлены пользователями сайта, и администрация не несёт ответственности за их содержание. Просьба не заливать файлы, защищенные авторскими правами, а также файлы нелегального содержания!


    _________________
    [Профиль] [ЛС]
    Показать сообщения:    
    Ответить на тему

    Текущее время: Сегодня, в 05:16

    Часовой пояс: GMT + 2



    Вы не можете начинать темы
    Вы не можете отвечать на сообщения
    Вы не можете редактировать свои сообщения
    Вы не можете удалять свои сообщения
    Вы не можете голосовать в опросах
    Вы не можете прикреплять файлы к сообщениям
    Вы не можете скачивать файлы