Register  ·  Log in
Forgot password?

  • На море! (Ярослав Чеважевский) [2008, Комедия, DVDRip]

    Reply to topic
    Author Message


    Post 23-Jun-2016 10:06



    На море!«Русские знают толк в отдыхе»Жанр: Комедия
    Год выпуска: 2008
    Продолжительность: 01:38:00
    Режиссёр: Ярослав Чеважевский
    В ролях: Ярослав Чеважевский, Алёна Бабенко, Инга Оболдина, Юрий Колокольников, Павел Деревянко, Евгения Лютая, Ульяна Ворожейкина, Сюзанна Шпак, Никита Бабенко, Гарик Далалоян
    Описание: Две семьи с друзьями решают провести новогодние каникулы большой и шумной компанией на Канарских островах. Пока в России холодная зима, они будут наслаждаться солнцем и морем. Казалось бы, нашему туристу ничто не может помешать. Однако обстоятельства не позволят им не то что искупаться, а даже одним глазком увидеть море.-Сэмпл:Качество видео: DVDRip
    Формат видео: AVI
    Видео: 704x368 (1.913), 25.000 fps, XviD, 1522 Kbps, 0.23 bit/pixel
    Аудио: 48 kHz, AC3 Dolby Digital, 3/2 (L,C,R,l,r) + LFE ch, 448 Kbps


    Complete name : Downloads\Na.more.2009.XviD.DVDRip_INTERFILM.avi
    Format : AVI
    Format/Info : Audio Video Interleave
    File size : 1.36 GiB
    Duration : 1h 38mn
    Overall bit rate : 1 980 Kbps
    Writing application : VirtualDubMod (build 2540/release)
    Writing library : VirtualDubMod build 2540/release
    Video #0
    ID : 0
    Format : MPEG-4 Visual
    Format profile : Advanced Simple@L5
    Format settings, BVOP : 2
    Format settings, QPel : No
    Format settings, GMC : No warppoints
    Format settings, Matrix : Default (MPEG)
    Muxing mode : Packed bitstream
    Codec ID : XVID
    Codec ID/Hint : XviD
    Duration : 1h 38mn
    Bit rate : 1 522 Kbps
    Width : 704 pixels
    Height : 368 pixels
    Display aspect ratio : 1.913
    Frame rate : 25.000 fps
    Color space : YUV
    Chroma subsampling : 4:2:0
    Bit depth : 8 bits
    Scan type : Progressive
    Compression mode : Lossy
    Bits/(Pixel*Frame) : 0.235
    Stream size : 1.05 GiB (77%)
    Writing library : XviD 1.2.0.dev47 (UTC 2006-11-01)
    Audio #1
    ID : 1
    Format : AC-3
    Format/Info : Audio Coding 3
    Mode extension : CM (complete main)
    Format settings, Endianness : Big
    Codec ID : 2000
    Duration : 1h 38mn
    Bit rate mode : Constant
    Bit rate : 448 Kbps
    Channel(s) : 6 channels
    Channel positions : Front: L C R, Side: L R, LFE
    Sampling rate : 48.0 KHz
    Bit depth : 16 bits
    Compression mode : Lossy
    Delay relative to video : 197ms
    Stream size : 316 MiB (23%)
    Alignment : Split accross interleaves
    Interleave, duration : 40 ms (1.00 video frame)
    Interleave, preload duration : 500 ms

    Скриншот c названием фильма


    Download .torrent

    Download free and at maximum speed!

    How to Download? · What is a torrent? · Ratings and Limitations

    The site does not extend and does not store electronic(digital) versions of products, and only gives access to a reference catalogue created by users on torrent-files which contain only lists of the hash-sums, the earnest entreaty, with complaints(abuse) to access directly to the user. Files for an exchange on tracker are given by users of a site, and the administration does not bear the responsibility for their maintenance. The request to not fill in the files protected by copyrights, and also files of the illegal maintenance!

    [Profile] [PM]
    Display posts from previous:    
    Reply to topic

    The time now is: Today 06:39

    All times are GMT + 3 Hours

    You cannot post new topics in this forum
    You cannot reply to topics in this forum
    You cannot edit your posts in this forum
    You cannot delete your posts in this forum
    You cannot vote in polls in this forum
    You cannot attach files in this forum
    You cannot download files in this forum