BitTorrentTracker PerecTracker.org
BitTorrentTracker PerecTracker.org
    
Регистрация  ·  Вход
 
 · 
Забыли пароль?

  • Дивергент, глава 3: За стеной / Allegiant (Роберт Швентке / Robert Schwentke) [2016, США, фантастика, боевик, триллер, WEB-DLRip-AVC] Dub + Sub (eng)

    Ответить на тему
     
    Автор Сообщение

    rechyn

    Создавать темы 23-Июн-2016 09:06

           

    [Цитировать]

    Дивергент, глава 3: За стеной / Allegiant«Break the boundaries of your world»-Страна: США
    Жанр: фантастика, боевик, триллер, детектив, приключения
    Год выпуска: 2016
    Продолжительность: 02:00:33
    Перевод: Профессиональный (полное дублирование) (iTunes)
    Субтитры: английские (полные)
    Навигация по главам: есть
    Режиссер: Роберт Швентке / Robert Schwentke
    В ролях: Шейлин Вудли, Тео Джеймс, Энсел Элгорт, Зои Кравиц, Майлз Теллер, Джефф Дэниелс, Наоми Уоттс, Мэгги Кью, Билл Скарсгард, Кейнан Лонсдейл, Надиа Хилкер, Октавия Спенсер, Дэниэл Дэ Ким, Джонни Уэстон, Энди Бин, Рэй Стивенсон, Мекхай Файфер, Джозеф Дэвид-Джонс, Эшли Джадд, Джош Давендек-Описание: Трис и Фор впервые покидают город и своих близких и оказываются в опасном мире за стеной, отделяющей Чикаго, где им открывается шокирующая правда.
    Они должны быстро разобраться, кому можно доверять, так как битва, разгорающаяся за стенами города, угрожает всему человечеству. Чтобы выжить, Трис придется сделать непростой выбор между мужеством, верностью, любовью и необходимостью идти на жертвы.- -Качество: WEB-DLRip-AVC (исходник - ALLEGIANT_WEB_DL_1080p-BLUEBIRD)
    Формат видео: MKV
    Видео: x264, 1120x464 (2.40:1), 23,976 fps, ~2045 kbps, 0,164 bit/pixel
    Аудио: 48 kHz, AC3 Dolby Digital, 3/2 (L,C,R,l,r) + LFE ch, ~384 kbps [русский]
    Формат субтитров: softsub (SRT)-

    MediaInfo | x264 log

    Format : Matroska
    Format version : Version 4 / Version 2
    File size : 2.05 GiB
    Duration : 2h 0mn
    Overall bit rate : 2 430 Kbps
    Movie name : Дивергент, глава 3: За стеной / Allegiant (2016) :: AFM ::
    Encoded date : UTC 2016-06-22 10:21:54
    Writing application : mkvmerge v8.3.0 ('Over the Horizon') 32bit
    Writing library : libebml v1.3.1 + libmatroska v1.4.2
    Video
    ID : 1
    Format : AVC
    Format/Info : Advanced Video Codec
    Format profile : High@L4.1
    Format settings, CABAC : Yes
    Format settings, ReFrames : 10 frames
    Codec ID : V_MPEG4/ISO/AVC
    Duration : 2h 0mn
    Bit rate : 2 045 Kbps
    Width : 1 120 pixels
    Height : 464 pixels
    Display aspect ratio : 2.40:1
    Frame rate mode : Constant
    Frame rate : 23.976 fps
    Color space : YUV
    Chroma subsampling : 4:2:0
    Bit depth : 8 bits
    Scan type : Progressive
    Bits/(Pixel*Frame) : 0.164
    Stream size : 1.68 GiB (82%)
    Title : WEBDLRip by AFM [RuTracker.org]
    Writing library : x264 core 148 r2705+54 9f484c1 t_mod_Custom [8-bit@all X86_64]
    Encoding settings : cabac=1 / ref=10 / deblock=1:-2:-2 / analyse=0x3:0x113 / me=umh / subme=10 / psy=1 / fade_compensate=0.00 / psy_rd=1.00:0.00 / mixed_ref=1 / me_range=32 / chroma_me=1 / trellis=2 / 8x8dct=1 / cqm=0 / deadzone=21,11 / fast_pskip=0 / chroma_qp_offset=-2 / threads=6 / lookahead_threads=1 / sliced_threads=0 / nr=0 / decimate=0 / interlaced=0 / bluray_compat=0 / constrained_intra=0 / fgo=0 / bframes=12 / b_pyramid=2 / b_adapt=2 / b_bias=0 / direct=3 / weightb=1 / open_gop=0 / weightp=2 / keyint=250 / keyint_min=23 / scenecut=40 / intra_refresh=0 / rc_lookahead=40 / rc=2pass / mbtree=0 / bitrate=2045 / ratetol=1.0 / qcomp=0.65 / qpmin=0:0:0 / qpmax=69:69:69 / qpstep=4 / cplxblur=20.0 / qblur=0.5 / vbv_maxrate=50000 / vbv_bufsize=62500 / nal_hrd=none / filler=0 / ip_ratio=1.25 / pb_ratio=1.20 / aq=1:0.80 / aq-sensitivity=10.00 / aq-factor=1.00:1.00:1.00 / aq2=0 / aq3=0
    Language : English
    Default : Yes
    Forced : No
    Audio
    ID : 2
    Format : AC-3
    Format/Info : Audio Coding 3
    Mode extension : CM (complete main)
    Format settings, Endianness : Big
    Codec ID : A_AC3
    Duration : 2h 0mn
    Bit rate mode : Constant
    Bit rate : 384 Kbps
    Channel(s) : 6 channels
    Channel positions : Front: L C R, Side: L R, LFE
    Sampling rate : 48.0 KHz
    Compression mode : Lossy
    Stream size : 331 MiB (16%)
    Title : Dub, AC3 5.1 ~384 kbps
    Language : Russian
    Default : Yes
    Forced : No
    Text
    ID : 3
    Format : UTF-8
    Codec ID : S_TEXT/UTF8
    Codec ID/Info : UTF-8 Plain Text
    Language : English
    Default : No
    Forced : No
    Menu
    00:00:00.000 : en:Chapter 1
    00:09:47.000 : en:Chapter 2
    00:18:47.000 : en:Chapter 3
    00:26:52.000 : en:Chapter 4
    00:36:10.000 : en:Chapter 5
    00:45:50.000 : en:Chapter 6
    00:53:32.000 : en:Chapter 7
    01:03:32.000 : en:Chapter 8
    01:13:24.000 : en:Chapter 9
    01:23:11.000 : en:Chapter 10
    01:30:52.000 : en:Chapter 11
    01:40:09.000 : en:Chapter 12
    01:49:16.000 : en:Chapter 13

    x264

    x264 [info]: frame I:1342 Avg QP:16.43 size: 63689
    x264 [info]: frame P:50128 Avg QP:19.18 size: 20377
    x264 [info]: frame B:121957 Avg QP:20.65 size: 6083
    x264 [info]: consecutive B-frames: 4.2% 7.3% 6.7% 70.8% 3.9% 5.9% 0.7% 0.3% 0.1% 0.0% 0.1% 0.0% 0.1%
    x264 [info]: mb I I16..4: 6.6% 68.6% 24.7%
    x264 [info]: mb P I16..4: 1.1% 7.6% 1.6% P16..4: 39.9% 28.0% 14.7% 0.0% 0.0% skip: 7.1%
    x264 [info]: mb B I16..4: 0.1% 0.6% 0.2% B16..8: 35.5% 11.0% 3.2% direct: 5.2% skip:44.2% L0:37.0% L1:45.2% BI:17.8%
    x264 [info]: 8x8 transform intra:72.1% inter:56.3%
    x264 [info]: direct mvs spatial:95.1% temporal:4.9%
    x264 [info]: coded y,uvDC,uvAC intra: 81.8% 81.7% 57.0% inter: 21.4% 18.2% 8.8%
    x264 [info]: i16 v,h,dc,p: 28% 17% 6% 49%
    x264 [info]: i8 v,h,dc,ddl,ddr,vr,hd,vl,hu: 13% 12% 7% 8% 12% 12% 12% 11% 13%
    x264 [info]: i4 v,h,dc,ddl,ddr,vr,hd,vl,hu: 16% 11% 4% 8% 13% 13% 12% 10% 12%
    x264 [info]: i8c dc,h,v,p: 38% 25% 21% 17%
    x264 [info]: Weighted P-Frames: Y:2.7% UV:1.3%
    x264 [info]: ref P L0: 56.9% 11.6% 14.5% 4.7% 3.6% 2.7% 2.5% 1.3% 1.1% 1.1% 0.1% 0.0%
    x264 [info]: ref B L0: 81.8% 8.9% 3.5% 2.0% 1.1% 1.0% 1.0% 0.6% 0.2%
    x264 [info]: ref B L1: 96.5% 3.5%
    x264 [info]: kb/s:2044.73

    Скриншоты

    с названием

    Скачать .torrent

    Скачать торрент-файл бесплатно и на максимальной скорости!

    Как скачивать? · Что такое торрент? · Рейтинг и ограничения

    !ВНИМАНИЕ!
    Сайт не распространяет и не хранит электронные версии произведений, а занимается лишь лишь предоставлением доступа к создаваемому пользователями каталогу ссылок на торрент-файлы, которые содержат только списки хеш-сумм, убедительная просьба с жалобами обращаться напрямую к пользователю. Файлы для обмена на трекере предоставлены пользователями сайта, и администрация не несёт ответственности за их содержание. Просьба не заливать файлы, защищенные авторскими правами, а также файлы нелегального содержания!


    _________________
    [Профиль] [ЛС]
    Показать сообщения:    
    Ответить на тему

    Текущее время: Сегодня, в 08:05

    Часовой пояс: GMT + 2



    Вы не можете начинать темы
    Вы не можете отвечать на сообщения
    Вы не можете редактировать свои сообщения
    Вы не можете удалять свои сообщения
    Вы не можете голосовать в опросах
    Вы не можете прикреплять файлы к сообщениям
    Вы не можете скачивать файлы