BitTorrentTracker PerecTracker.org
BitTorrentTracker PerecTracker.org
    
Регистрация  ·  Вход
 
 · 
Забыли пароль?

  • Частный курорт / Private Resort (Джордж Бауэрс / George Bowers) [1985, США, комедия, BDRip 720p] MVO (6 канал) + MVO (Ukr) + AVO (Юрий Товбин) + Sub Eng + Original Eng

    Ответить на тему
     
    Автор Сообщение

    Light

    Создавать темы 22-Июн-2016 23:18

           

    [Цитировать]

    Частный курорт / Private Resort
    Страна: США
    Жанр: комедия
    Год выпуска: 1985
    Продолжительность: 01:21:52
    Перевод 1: Профессиональный (многоголосый закадровый) 6 канал по заказу СТС
    Перевод 2: Авторский (одноголосый закадровый) Юрий Товбин
    Cубтитры: английские
    Оригинальная аудиодорожка: английский
    Режиссер: Джордж Бауэрс / George Bowers
    В ролях: Роб Морроу, Джонни Депп, Эмили Лонгстрет, Керин О’Брайан, Гектор Элизондо, Доди Гудмен, Тони Азито, Хилари Шепард, Лесли Истербрук, Майкл Боуэн...
    Описание: Два молодых и веселых парня попадают в роскошный отель на побережье, где стараются «оттянуться по полной программе». К сожалению, местный вор и гостиничный детектив все время мешают ребятам заниматься их любимым «видом спорта» — здоровым сексом.
    Доп. информация:
    Перевод 6 канала и украинский перевод, с раздачи zeroXXX, синхронизировал Dreven.
    Оцифровка и синхронизация перевода Товбина - Фредди Крюгер.
    Сэмпл: http://multi-up.com/1106731
    Тип релиза: BDRip 720p
    Контейнер: MKV
    Видео: 1280x696 (1.85:1), 23.976 fps, AVC, ~5268 Kbps, 0.247 bits/pixel
    Аудио 1: Russian, 48.0 KHz, AC3, 2 ch, 192 Kbps - 6 канал
    Аудио 2: Russian, 48.0 KHz, AC3, 2 ch, 192 Kbps - Юрий Товбин
    Аудио 3: Ukrainian, 48.0 KHz, AC3, 2 ch, 192 Kbps
    Аудио 4: English, 48.0 KHz, AC3, 2 ch, 448 Kbps

    MediaInfo

    General
    Unique ID : 204607907723935632421063712323788670068 (0x99EE0CB4D6F6705E9A7CFE463CB10474)
    Complete name : C:\Private Resort. BDRip 720p.mkv
    Format : Matroska
    Format version : Version 4 / Version 2
    File size : 3.60 GiB
    Duration : 1h 21mn
    Overall bit rate : 6 293 Kbps
    Encoded date : UTC 2016-06-20 18:07:58
    Writing application : mkvmerge v9.2.0 ('Photograph') 64bit
    Writing library : libebml v1.3.3 + libmatroska v1.4.4
    Video
    ID : 1
    Format : AVC
    Format/Info : Advanced Video Codec
    Format profile : High@L4.1
    Format settings, CABAC : Yes
    Format settings, ReFrames : 5 frames
    Codec ID : V_MPEG4/ISO/AVC
    Duration : 1h 21mn
    Bit rate : 5 268 Kbps
    Width : 1 280 pixels
    Height : 696 pixels
    Display aspect ratio : 1.85:1
    Frame rate mode : Constant
    Frame rate : 23.976 (24000/1001) fps
    Color space : YUV
    Chroma subsampling : 4:2:0
    Bit depth : 8 bits
    Scan type : Progressive
    Bits/(Pixel*Frame) : 0.247
    Stream size : 3.01 GiB (84%)
    Writing library : x264 core 148 r2665 a01e339
    Encoding settings : cabac=1 / ref=5 / deblock=1:-1:-1 / analyse=0x3:0x113 / me=umh / subme=7 / psy=1 / psy_rd=1.00:0.00 / mixed_ref=1 / me_range=16 / chroma_me=1 / trellis=1 / 8x8dct=1 / cqm=0 / deadzone=21,11 / fast_pskip=1 / chroma_qp_offset=-2 / threads=12 / lookahead_threads=2 / sliced_threads=0 / nr=0 / decimate=1 / interlaced=0 / bluray_compat=0 / constrained_intra=0 / bframes=3 / b_pyramid=2 / b_adapt=2 / b_bias=0 / direct=3 / weightb=1 / open_gop=0 / weightp=2 / keyint=250 / keyint_min=23 / scenecut=40 / intra_refresh=0 / rc_lookahead=40 / rc=2pass / mbtree=1 / bitrate=5268 / ratetol=1.0 / qcomp=0.60 / qpmin=0 / qpmax=69 / qpstep=4 / cplxblur=20.0 / qblur=0.5 / vbv_maxrate=50000 / vbv_bufsize=50000 / nal_hrd=none / filler=0 / ip_ratio=1.40 / aq=1:1.00
    Language : English
    Default : Yes
    Forced : No
    Audio #1
    ID : 2
    Format : AC-3
    Format/Info : Audio Coding 3
    Mode extension : CM (complete main)
    Format settings, Endianness : Big
    Codec ID : A_AC3
    Duration : 1h 21mn
    Bit rate mode : Constant
    Bit rate : 192 Kbps
    Channel(s) : 2 channels
    Channel positions : Front: L R
    Sampling rate : 48.0 KHz
    Frame rate : 31.250 fps (1536 spf)
    Compression mode : Lossy
    Stream size : 112 MiB (3%)
    Title : 6 канал
    Language : Russian
    Default : Yes
    Forced : No
    Audio #2
    ID : 3
    Format : AC-3
    Format/Info : Audio Coding 3
    Mode extension : CM (complete main)
    Format settings, Endianness : Big
    Codec ID : A_AC3
    Duration : 1h 21mn
    Bit rate mode : Constant
    Bit rate : 192 Kbps
    Channel(s) : 2 channels
    Channel positions : Front: L R
    Sampling rate : 48.0 KHz
    Frame rate : 31.250 fps (1536 spf)
    Compression mode : Lossy
    Stream size : 112 MiB (3%)
    Title : Юрий Товбин
    Language : Russian
    Default : No
    Forced : No
    Audio #3
    ID : 4
    Format : AC-3
    Format/Info : Audio Coding 3
    Mode extension : CM (complete main)
    Format settings, Endianness : Big
    Codec ID : A_AC3
    Duration : 1h 21mn
    Bit rate mode : Constant
    Bit rate : 192 Kbps
    Channel(s) : 2 channels
    Channel positions : Front: L R
    Sampling rate : 48.0 KHz
    Frame rate : 31.250 fps (1536 spf)
    Compression mode : Lossy
    Stream size : 112 MiB (3%)
    Language : Ukrainian
    Default : No
    Forced : No
    Audio #4
    ID : 5
    Format : AC-3
    Format/Info : Audio Coding 3
    Mode extension : CM (complete main)
    Format settings, Endianness : Big
    Codec ID : A_AC3
    Duration : 1h 21mn
    Bit rate mode : Constant
    Bit rate : 448 Kbps
    Channel(s) : 2 channels
    Channel positions : Front: L R
    Sampling rate : 48.0 KHz
    Frame rate : 31.250 fps (1536 spf)
    Compression mode : Lossy
    Stream size : 262 MiB (7%)
    Language : English
    Default : No
    Forced : No
    Text
    ID : 6
    Format : UTF-8
    Codec ID : S_TEXT/UTF8
    Codec ID/Info : UTF-8 Plain Text
    Duration : 1h 17mn
    Bit rate : 58 bps
    Count of elements : 1032
    Stream size : 33.0 KiB (0%)
    Language : English
    Default : No
    Forced : No

    Скриншоты

    Скачать .torrent

    Скачать торрент-файл бесплатно и на максимальной скорости!

    Как скачивать? · Что такое торрент? · Рейтинг и ограничения

    !ВНИМАНИЕ!
    Сайт не распространяет и не хранит электронные версии произведений, а занимается лишь лишь предоставлением доступа к создаваемому пользователями каталогу ссылок на торрент-файлы, которые содержат только списки хеш-сумм, убедительная просьба с жалобами обращаться напрямую к пользователю. Файлы для обмена на трекере предоставлены пользователями сайта, и администрация не несёт ответственности за их содержание. Просьба не заливать файлы, защищенные авторскими правами, а также файлы нелегального содержания!


    _________________
    [Профиль] [ЛС]
    Показать сообщения:    
    Ответить на тему

    Текущее время: Сегодня, в 20:43

    Часовой пояс: GMT + 2



    Вы не можете начинать темы
    Вы не можете отвечать на сообщения
    Вы не можете редактировать свои сообщения
    Вы не можете удалять свои сообщения
    Вы не можете голосовать в опросах
    Вы не можете прикреплять файлы к сообщениям
    Вы не можете скачивать файлы