BitTorrentTracker PerecTracker.org
BitTorrentTracker PerecTracker.org
    
Регистрация  ·  Вход
 
 · 
Забыли пароль?

  • Спрятанный в лесу / Скрытые в лесу / Hidden in the Woods (Патрисио Вальядарес / Patricio Valladares) [2014, США, Франция, Триллер, BDRip] AVO (Дольский)

    Ответить на тему
     
    Автор Сообщение

    Light

    Создавать темы 22-Июн-2016 19:13

           

    [Цитировать]

    Спрятанный в лесу / Скрытые в лесу / Hidden in the Woods
    Страна: США, Франция
    Студия: Artigo Indie, BlancBiehn Productions, Hackybox Pictures, Small Red Star Productions, Valladares Films, WTF
    Жанр: Триллер
    Год выпуска: 2014
    Продолжительность: 01:30:42
    Перевод: Авторский (одноголосый закадровый) Андрей Дольский
    Cубтитры: нет
    Оригинальная аудиодорожка: нет
    Режиссер: Патрисио Вальядарес / Patricio Valladares
    В ролях: Майкл Бин, Джаннин Каспар, Электра Авеллан, Уильям Форсайт, Ник Бейтман, Дженнифер Бланк, Крис Браунинг, Кэйтлин Китс, Эви Томпсон, Кшиштоф Сошинский, Дизел Рамос
    Описание: Извращенец и алкоголик Филипп растит в лесной глуши трех своих детей — двух дочерей и умственно отсталого сына. «Растит», конечно, сильно сказано: после того как он убил свою жену, полоумный папаша всячески издевается над детьми, даже насилует девочек. А в их доме свой товар хранят наркоторговцы. Из-за этого-то однажды в лес наведываются полицейские, и пока отец разбирается с ними с помощью бензопилы, детям удается сбежать в лес…
    Дополнительная информация:
    Автор релиза - ylnian
    Заказ перевода у Андрея Дольского (июнь 2016) - ylnian
    За сборку дороги спасибо rammzez

    Сэмпл: https://yadi.sk/i/Ue5axU6LsUrNt
    Качество видео: BDRip
    Формат видео: AVI
    Видео: XviD, 720x400 (16:9), 23.976 fps, 1849 kbps, 0.268 bit/pixel
    Аудио: Русский AC3, 48000 Гц, 6ch, 448 kbps

    MediaInfo

    Общее
    Полное имя : B:\Hidden.in.the.Woods.2014.BDRip-ylnian.avi
    Формат : AVI
    Формат/Информация : Audio Video Interleave
    Размер файла : 1,46 Гбайт
    Продолжительность : 1 ч. 30 м.
    Общий поток : 2306 Кбит/сек
    Программа кодирования : VirtualDubMod 1.5.10.2 (build 2540/release)
    Библиотека кодирования : VirtualDubMod build 2540/release
    Видео
    Идентификатор : 0
    Формат : MPEG-4 Visual
    Профиль формата : Advanced Simple@L5
    Параметр BVOP формата : 1
    Параметр QPel формата : Нет
    Параметр GMC формата : Без точки перехода
    Параметр матрицы формата : Default (MPEG)
    Идентификатор кодека : XVID
    Идентификатор кодека/Подсказка : XviD
    Продолжительность : 1 ч. 30 м.
    Битрейт : 1849 Кбит/сек
    Ширина : 720 пикселей
    Высота : 400 пикселей
    Соотношение сторон : 16:9
    Частота кадров : 23,976 (24000/1001) кадра/сек
    Цветовое пространство : YUV
    Субдискретизация насыщенности : 4:2:0
    Битовая глубина : 8 бит
    Тип развёртки : Прогрессивная
    Метод сжатия : С потерями
    Бит/(Пиксели*Кадры) : 0.268
    Размер потока : 1,17 Гбайт (80%)
    Библиотека кодирования : XviD 67
    Аудио
    Идентификатор : 1
    Формат : AC-3
    Формат/Информация : Audio Coding 3
    Расширение режима : CM (complete main)
    Параметр Endianness формата : Big
    Идентификатор кодека : 2000
    Продолжительность : 1 ч. 30 м.
    Вид битрейта : Постоянный
    Битрейт : 448 Кбит/сек
    Каналы : 6 каналов
    Расположение каналов : Front: L C R, Side: L R, LFE
    Частота : 48,0 КГц
    Частота кадров : 31,250 кадров/сек (1536 spf)
    Метод сжатия : С потерями
    Размер потока : 291 Мбайт (19%)
    Выравнивание : Разделение по промежуткам
    Продолжительность промежутка : 42 мс. (1,00 видеокадр)
    Время предзагрузки промежутка : 500 мс.

    Скриншот c названием фильма

    Скриншоты

    Скачать .torrent

    Скачать торрент-файл бесплатно и на максимальной скорости!

    Как скачивать? · Что такое торрент? · Рейтинг и ограничения

    !ВНИМАНИЕ!
    Сайт не распространяет и не хранит электронные версии произведений, а занимается лишь лишь предоставлением доступа к создаваемому пользователями каталогу ссылок на торрент-файлы, которые содержат только списки хеш-сумм, убедительная просьба с жалобами обращаться напрямую к пользователю. Файлы для обмена на трекере предоставлены пользователями сайта, и администрация не несёт ответственности за их содержание. Просьба не заливать файлы, защищенные авторскими правами, а также файлы нелегального содержания!


    _________________
    [Профиль] [ЛС]
    Показать сообщения:    
    Ответить на тему

    Текущее время: Сегодня, в 13:03

    Часовой пояс: GMT + 2



    Вы не можете начинать темы
    Вы не можете отвечать на сообщения
    Вы не можете редактировать свои сообщения
    Вы не можете удалять свои сообщения
    Вы не можете голосовать в опросах
    Вы не можете прикреплять файлы к сообщениям
    Вы не можете скачивать файлы