BitTorrentTracker PerecTracker.org
BitTorrentTracker PerecTracker.org
    
Регистрация  ·  Вход
 
 · 
Забыли пароль?

  • Джекилл и Хайд... Снова вместе / Jekyll and Hyde... Together Again (Джерри Белсон / Jerry Belson) [1982, США, фантастика, комедия, музыка, BDRip 720p] DVO (СВ-КАДР) + VO (tornado) + Original (Eng) + Sub (Eng)

    Ответить на тему
     
    Автор Сообщение

    Light

    Создавать темы 22-Июн-2016 19:13

           

    [Цитировать]

    Джекилл и Хайд... Снова вместе / Jekyll and Hyde... Together Again«The comedy that examines modern living through chemistry»-Страна: США
    Жанр: фантастика, комедия, музыка
    Год выпуска: 1982
    Продолжительность: 01:26:59-Перевод №1: Профессиональный (двухголосый закадровый) - "СВ-КАДР" - [на тон-студии "Мосфильм"]
    Перевод №2: Одноголосый закадровый - tornado
    Оригинальная аудиодорожка: English
    Cубтитры: English (full)
    Навигация по главам: отсутствует-Режиссер: Джерри Белсон / Jerry Belson
    В ролях: Марк Блэнкфилд, Бесс Армстронг, Криста Эрриксон, Тим Томерсон, Майкл МакГуайр, Нил Хант, Кассандра Петерсон, Джесика Нельсон, Питер Брокко, Майкл Клингер, Ноэль Норт, Мэри МакКаскер, Лиз Шеридан, Белита Морено, Джордж Уэндт, Глен Чин, Джесси Д. Гойнс, Джек Коллинз, Майкл Инсайн, Джон Деннис Джонстон, Дэвид Рупрехт, Кларк Коулмэн, Сэм Уиппл-Описание: Гениальный хирург Дэниел Джекилл покидает хирургию, несмотря на многочисленные просьбы остаться, чтобы заниматься исследовательской работой. Он пытается изобрести лекарство, которое может обострять в человеке животные инстинкты. Однажды заснув от усталости в своей лаборатории, доктор Джекилл случайно вдыхает экспериментальное лекарство, которое превращает его в сексуально ненасытного свингера…- -Качество видео: BDRip 720p | исх. BDRemux 1080p - thx: Pigy
    Формат: MKV-Видео: 1280x720 (16:9), 23.976 fps, H.264, 11756.96 kb/s, 0.521 bit/pixel
    Аудио №1: 48.0 kHz, AC3 Dolby Digital, 2/0 (L,R) ch, ~192 kbps avg | Профессиональный (двухголосый закадровый) - "СВ-КАДР" - [на тон-студии "Мосфильм"]
    Аудио №2: 48.0 kHz, AC3 Dolby Digital, 2/0 (L,R) ch, ~192 kbps avg | Одноголосый закадровый - tornado
    Аудио №3: 48.0 kHz, AC3 Dolby Digital, 2/0 (L,R) ch, ~192 kbps avg | English
    Субтитры: English (full) | *.srt-

    MediaInfo

    General
    Unique ID : 212305764077660141773129527818793548245 (0x9FB89A53BE397EA2AA3AAD8756CC79D5)
    Complete name : D:\Фильмы\Рипы\Jekyll and Hyde... Together Again.1982.BDRip 720p.eFK tRuAVC.mkv
    Format : Matroska
    Format version : Version 4 / Version 2
    File size : 7.49 GiB
    Duration : 1h 26mn
    Overall bit rate : 12.3 Mbps
    Movie name : Джекилл и Хайд... Снова вместе / Jekyll and Hyde... Together Again (1982) - Release for rutracker
    Encoded date : UTC 2016-06-21 06:17:20
    Writing application : mkvmerge v9.2.0 ('Photograph') 64bit
    Writing library : libebml v1.3.3 + libmatroska v1.4.4
    Attachements : cover.png
    DURATION : 01:22:53.712000000
    NUMBER_OF_FRAMES : 906
    NUMBER_OF_BYTES : 24323
    _STATISTICS_WRITING_APP : mkvmerge v9.2.0 ('Photograph') 64bit
    _STATISTICS_WRITING_DATE_UT : 2016-06-21 06:17:20
    _STATISTICS_TAGS : BPS DURATION NUMBER_OF_FRAMES NUMBER_OF_BYTES
    Video
    ID : 1
    Format : AVC
    Format/Info : Advanced Video Codec
    Format profile : High@L4.1
    Format settings, CABAC : Yes
    Format settings, ReFrames : 9 frames
    Codec ID : V_MPEG4/ISO/AVC
    Duration : 1h 26mn
    Bit rate : 11.5 Mbps
    Width : 1 280 pixels
    Height : 720 pixels
    Display aspect ratio : 16:9
    Frame rate mode : Constant
    Frame rate : 23.976 fps
    Color space : YUV
    Chroma subsampling : 4:2:0
    Bit depth : 8 bits
    Scan type : Progressive
    Bits/(Pixel*Frame) : 0.521
    Stream size : 6.99 GiB (93%)
    Title : eFK tRuAVC
    Writing library : x264 core 148 r2692kMod 64f4e24
    Encoding settings : cabac=1 / ref=9 / deblock=1:-3:-3 / analyse=0x3:0x113 / me=umh / subme=11 / psy=1 / fade_compensate=0.00 / psy_rd=1.10:0.00 / mixed_ref=1 / me_range=48 / chroma_me=1 / trellis=2 / 8x8dct=1 / cqm=0 / deadzone=21,11 / fast_pskip=0 / chroma_qp_offset=-2 / threads=12 / lookahead_threads=3 / sliced_threads=0 / nr=0 / decimate=1 / interlaced=0 / bluray_compat=0 / constrained_intra=0 / fgo=0 / bframes=16 / b_pyramid=2 / b_adapt=2 / b_bias=0 / direct=3 / weightb=1 / open_gop=0 / weightp=2 / keyint=250 / keyint_min=23 / scenecut=40 / intra_refresh=0 / rc_lookahead=60 / rc=crf / mbtree=0 / crf=18.0000 / qcomp=0.55 / qpmin=0 / qpmax=69 / qpstep=4 / vbv_maxrate=62500 / vbv_bufsize=78125 / crf_max=0.0 / nal_hrd=none / filler=0 / ip_ratio=1.40 / pb_ratio=1.30 / aq=3:0.70
    Language : English
    Default : Yes
    Forced : No
    Color range : Limited
    Color primaries : BT.709
    Transfer characteristics : BT.709
    Matrix coefficients : BT.709
    DURATION : 01:26:53.250000000
    NUMBER_OF_FRAMES : 124993
    NUMBER_OF_BYTES : 7661494041
    _STATISTICS_WRITING_APP : mkvmerge v9.2.0 ('Photograph') 64bit
    _STATISTICS_WRITING_DATE_UT : 2016-06-21 06:17:20
    _STATISTICS_TAGS : BPS DURATION NUMBER_OF_FRAMES NUMBER_OF_BYTES
    Audio #1
    ID : 2
    Format : AC-3
    Format/Info : Audio Coding 3
    Mode extension : CM (complete main)
    Format settings, Endianness : Big
    Codec ID : A_AC3
    Duration : 1h 26mn
    Bit rate mode : Constant
    Bit rate : 192 Kbps
    Channel(s) : 2 channels
    Channel positions : Front: L R
    Sampling rate : 48.0 KHz
    Compression mode : Lossy
    Stream size : 119 MiB (2%)
    Title : Профессиональный (двухголосый закадровый) - "СВ-КАДР"
    Language : Russian
    Default : Yes
    Forced : No
    Audio #2
    ID : 3
    Format : AC-3
    Format/Info : Audio Coding 3
    Mode extension : CM (complete main)
    Format settings, Endianness : Big
    Codec ID : A_AC3
    Duration : 1h 26mn
    Bit rate mode : Constant
    Bit rate : 192 Kbps
    Channel(s) : 2 channels
    Channel positions : Front: L R
    Sampling rate : 48.0 KHz
    Compression mode : Lossy
    Stream size : 119 MiB (2%)
    Title : Одноголосый закадровый - tornado
    Language : Russian
    Default : No
    Forced : No
    Audio #3
    ID : 4
    Format : AC-3
    Format/Info : Audio Coding 3
    Mode extension : CM (complete main)
    Format settings, Endianness : Big
    Codec ID : A_AC3
    Duration : 1h 26mn
    Bit rate mode : Constant
    Bit rate : 192 Kbps
    Channel(s) : 2 channels
    Channel positions : Front: L R
    Sampling rate : 48.0 KHz
    Compression mode : Lossy
    Stream size : 119 MiB (2%)
    Language : English
    Default : No
    Forced : No
    Text
    ID : 5
    Format : UTF-8
    Codec ID : S_TEXT/UTF8
    Codec ID/Info : UTF-8 Plain Text
    Title : full
    Language : English
    Default : No
    Forced : No

    x264 log

    x264 [info]: frame I:714 Avg QP:19.87 size:135120
    x264 [info]: frame P:22372 Avg QP:21.00 size: 90288
    x264 [info]: frame B:101907 Avg QP:22.21 size: 54413
    x264 [info]: consecutive B-frames: 0.9% 0.7% 2.3% 12.7% 15.1% 42.2% 11.6% 4.9% 4.0% 3.0% 1.2% 0.5% 0.5% 0.3% 0.1% 0.1% 0.1%
    x264 [info]: mb I I16..4: 1.9% 89.1% 9.0%
    x264 [info]: mb P I16..4: 0.1% 31.5% 0.8% P16..4: 20.7% 30.2% 13.8% 0.0% 0.0% skip: 2.9%
    x264 [info]: mb B I16..4: 0.0% 7.1% 0.1% B16..8: 39.0% 26.7% 10.0% direct: 9.9% skip: 7.3% L0:46.3% L1:39.8% BI:13.9%
    x264 [info]: 8x8 transform intra:97.5% inter:61.9%
    x264 [info]: direct mvs spatial:99.9% temporal:0.1%
    x264 [info]: coded y,uvDC,uvAC intra: 99.2% 86.3% 49.8% inter: 71.0% 42.8% 3.3%
    x264 [info]: i16 v,h,dc,p: 47% 16% 14% 23%
    x264 [info]: i8 v,h,dc,ddl,ddr,vr,hd,vl,hu: 8% 6% 10% 12% 14% 14% 12% 12% 12%
    x264 [info]: i4 v,h,dc,ddl,ddr,vr,hd,vl,hu: 9% 5% 4% 10% 17% 17% 14% 13% 12%
    x264 [info]: i8c dc,h,v,p: 41% 23% 20% 16%
    x264 [info]: Weighted P-Frames: Y:12.1% UV:5.6%
    x264 [info]: ref P L0: 34.0% 10.0% 18.0% 9.9% 8.0% 6.5% 5.7% 3.8% 3.6% 0.5% 0.0%
    x264 [info]: ref B L0: 65.2% 13.2% 8.1% 4.6% 3.6% 3.1% 1.8% 0.5%
    x264 [info]: ref B L1: 92.4% 7.6%
    x264 [info]: kb/s:11756.96

    Скиншоты

    Comparison

    Source

    Encode
    Скачать .torrent

    Скачать торрент-файл бесплатно и на максимальной скорости!

    Как скачивать? · Что такое торрент? · Рейтинг и ограничения

    !ВНИМАНИЕ!
    Сайт не распространяет и не хранит электронные версии произведений, а занимается лишь лишь предоставлением доступа к создаваемому пользователями каталогу ссылок на торрент-файлы, которые содержат только списки хеш-сумм, убедительная просьба с жалобами обращаться напрямую к пользователю. Файлы для обмена на трекере предоставлены пользователями сайта, и администрация не несёт ответственности за их содержание. Просьба не заливать файлы, защищенные авторскими правами, а также файлы нелегального содержания!


    _________________
    [Профиль] [ЛС]
    Показать сообщения:    
    Ответить на тему

    Текущее время: Сегодня, в 10:05

    Часовой пояс: GMT + 2



    Вы не можете начинать темы
    Вы не можете отвечать на сообщения
    Вы не можете редактировать свои сообщения
    Вы не можете удалять свои сообщения
    Вы не можете голосовать в опросах
    Вы не можете прикреплять файлы к сообщениям
    Вы не можете скачивать файлы