BitTorrentTracker PerecTracker.org
BitTorrentTracker PerecTracker.org
    
Регистрация  ·  Вход
 
 · 
Забыли пароль?

  • (Contemporary Jazz) [CD] Matt Wilson Quartet + John Medeski - Gathering Call - 2014, FLAC (tracks+.cue), lossless

    Ответить на тему
     
    Автор Сообщение

    Columb

    Создавать темы 15-Мар-2014 16:21

           

    [Цитировать]

    matt wilson quartet
    + john medeski
    gathering call

    Жанр: Contemporary Jazz
    Страна-производитель диска: USA
    Год издания: 2014
    Издатель (лейбл): Palmetto Records
    Номер по каталогу: PM2169
    Аудиокодек: FLAC (*.flac)
    Тип рипа: tracks+.cue
    Битрейт аудио: lossless
    Продолжительность: 54:43
    Источник (релизер): спасибо LiplessOnion
    Наличие сканов в содержимом раздачи: нет

    Треклист:
    01. Main Stem
    02. Some Assembly Required
    03. Dancing Waters
    04. Get Over, Get Off And Get On
    05. Barack Obama
    06. Gathering Call
    07. You Dirty Dog
    08. Hope (For The Cause)
    09. Dreamscape
    10. How Ya Going?
    11. If I Were A Boy
    12. Pumpkin's Deligh
    13. Juanita

    Лог создания рипа

    X Lossless Decoder version 20131102 (145.0)
    XLD extraction logfile from 2014-03-13 20:56:34 -0500
    Matt Wilson Quartet & John Medeski / Gathering Call
    Used drive : MATSHITA DVD-R UJ-857D (revision KBVB)Media type : Pressed CD
    Ripper mode : XLD Secure RipperDisable audio cache : OK for the drive with a cache less than 1375KiBMake use of C2 pointers : NORead offset correction : 102Max retry count : 100Gap status : Analyzed, Appended
    TOC of the extracted CD Track | Start | Length | Start sector | End sector --------------------------------------------------------- 1 | 00:00:00 | 02:45:24 | 0 | 12398 2 | 02:45:24 | 04:43:37 | 12399 | 33660 3 | 07:28:61 | 03:44:20 | 33661 | 50480 4 | 11:13:06 | 05:29:36 | 50481 | 75191 5 | 16:42:42 | 04:35:17 | 75192 | 95833 6 | 21:17:59 | 01:46:69 | 95834 | 103852 7 | 23:04:53 | 05:23:68 | 103853 | 128145 8 | 28:28:46 | 05:41:35 | 128146 | 153755 9 | 34:10:06 | 01:26:49 | 153756 | 160254 10 | 35:36:55 | 02:58:50 | 160255 | 173654 11 | 38:35:30 | 04:20:26 | 173655 | 193180 12 | 42:55:56 | 08:32:69 | 193181 | 231649 13 | 51:28:50 | 03:34:44 | 231650 | 247743
    AccurateRip Summary (DiscID: 0019539f-00ff359e-a30ce70d) Track 01 : OK (v2, confidence 1/1) Track 02 : OK (v2, confidence 1/1) Track 03 : OK (v2, confidence 1/1) Track 04 : OK (v2, confidence 1/1) Track 05 : OK (v2, confidence 1/1) Track 06 : OK (v2, confidence 1/1) Track 07 : OK (v2, confidence 1/1) Track 08 : OK (v2, confidence 1/1) Track 09 : OK (v2, confidence 1/1) Track 10 : OK (v2, confidence 1/1) Track 11 : OK (v2, confidence 1/1) Track 12 : OK (v2, confidence 1/1) Track 13 : OK (v2, confidence 1/1) ->All tracks accurately ripped.
    All Tracks Album gain : -5.06 dB Peak : 0.997589 Statistics Read error : 0 Jitter error (maybe fixed) : 0 Retry sector count : 0 Damaged sector count : 0
    Track 01 Filename : /Users/scottabercrombie/Desktop/untitled folder/01 - Main Stem.flac Pre-gap length : 00:02:00
    Track gain : -5.79 dB Peak : 0.997253 CRC32 hash (test run) : 2F1C5E88 CRC32 hash : 2F1C5E88 CRC32 hash (skip zero) : C05689F3 AccurateRip v1 signature : 6792809A AccurateRip v2 signature : EAE13326 ->Accurately ripped (v2, confidence 1/1) Statistics Read error : 0 Jitter error (maybe fixed) : 0 Retry sector count : 0 Damaged sector count : 0
    Track 02 Filename : /Users/scottabercrombie/Desktop/untitled folder/02 - Some Assembly Required.flac Pre-gap length : 00:01:62
    Track gain : -6.03 dB Peak : 0.997589 CRC32 hash (test run) : 741AECA1 CRC32 hash : 741AECA1 CRC32 hash (skip zero) : A706F090 AccurateRip v1 signature : 4DF454AC AccurateRip v2 signature : 94924F74 ->Accurately ripped (v2, confidence 1/1) Statistics Read error : 0 Jitter error (maybe fixed) : 0 Retry sector count : 0 Damaged sector count : 0
    Track 03 Filename : /Users/scottabercrombie/Desktop/untitled folder/03 - Dancing Waters.flac Pre-gap length : 00:01:62
    Track gain : -1.71 dB Peak : 0.991455 CRC32 hash (test run) : 1881E6CC CRC32 hash : 1881E6CC CRC32 hash (skip zero) : 4C0481C6 AccurateRip v1 signature : 70597FAF AccurateRip v2 signature : EE95DC5E ->Accurately ripped (v2, confidence 1/1) Statistics Read error : 0 Jitter error (maybe fixed) : 0 Retry sector count : 0 Damaged sector count : 0
    Track 04 Filename : /Users/scottabercrombie/Desktop/untitled folder/04 - Get Over, Get Off and Get On.flac Pre-gap length : 00:01:62
    Track gain : -6.36 dB Peak : 0.996613 CRC32 hash (test run) : 4D55688E CRC32 hash : 4D55688E CRC32 hash (skip zero) : D480CA8F AccurateRip v1 signature : E977116F AccurateRip v2 signature : C9DC2269 ->Accurately ripped (v2, confidence 1/1) Statistics Read error : 0 Jitter error (maybe fixed) : 0 Retry sector count : 0 Damaged sector count : 0
    Track 05 Filename : /Users/scottabercrombie/Desktop/untitled folder/05 - Barack Obama.flac Pre-gap length : 00:01:62
    Track gain : -0.41 dB Peak : 0.883820 CRC32 hash (test run) : E80F3092 CRC32 hash : E80F3092 CRC32 hash (skip zero) : 49E093A3 AccurateRip v1 signature : 309E1E16 AccurateRip v2 signature : 5D49456D ->Accurately ripped (v2, confidence 1/1) Statistics Read error : 0 Jitter error (maybe fixed) : 0 Retry sector count : 0 Damaged sector count : 0
    Track 06 Filename : /Users/scottabercrombie/Desktop/untitled folder/06 - Gathering Call.flac Pre-gap length : 00:01:62
    Track gain : -6.25 dB Peak : 0.997192 CRC32 hash (test run) : 5332E7EC CRC32 hash : 5332E7EC CRC32 hash (skip zero) : 715EFA42 AccurateRip v1 signature : F4F9DD9B AccurateRip v2 signature : 87D24799 ->Accurately ripped (v2, confidence 1/1) Statistics Read error : 0 Jitter error (maybe fixed) : 0 Retry sector count : 0 Damaged sector count : 0
    Track 07 Filename : /Users/scottabercrombie/Desktop/untitled folder/07 - You Dirty.flac Pre-gap length : 00:01:61
    Track gain : -4.19 dB Peak : 0.996124 CRC32 hash (test run) : B778D75A CRC32 hash : B778D75A CRC32 hash (skip zero) : F9BCDEE4 AccurateRip v1 signature : 7221E84E AccurateRip v2 signature : BF795728 ->Accurately ripped (v2, confidence 1/1) Statistics Read error : 0 Jitter error (maybe fixed) : 0 Retry sector count : 0 Damaged sector count : 0
    Track 08 Filename : /Users/scottabercrombie/Desktop/untitled folder/08 - Hope (For the Cause).flac Pre-gap length : 00:01:62
    Track gain : 0.10 dB Peak : 0.995636 CRC32 hash (test run) : 2CC9D3A8 CRC32 hash : 2CC9D3A8 CRC32 hash (skip zero) : 08704C2E AccurateRip v1 signature : 4E52DC7F AccurateRip v2 signature : 428C2994 ->Accurately ripped (v2, confidence 1/1) Statistics Read error : 0 Jitter error (maybe fixed) : 0 Retry sector count : 0 Damaged sector count : 0
    Track 09 Filename : /Users/scottabercrombie/Desktop/untitled folder/09 - Dreamscape.flac Pre-gap length : 00:01:61
    Track gain : -2.62 dB Peak : 0.995972 CRC32 hash (test run) : 8708DBDA CRC32 hash : 8708DBDA CRC32 hash (skip zero) : 376D43DA AccurateRip v1 signature : 58F42EAF AccurateRip v2 signature : DF082FFD ->Accurately ripped (v2, confidence 1/1) Statistics Read error : 0 Jitter error (maybe fixed) : 0 Retry sector count : 0 Damaged sector count : 0
    Track 10 Filename : /Users/scottabercrombie/Desktop/untitled folder/10 - How Ya Going?.flac Pre-gap length : 00:00:10
    Track gain : -5.13 dB Peak : 0.996246 CRC32 hash (test run) : 571AA9C0 CRC32 hash : 571AA9C0 CRC32 hash (skip zero) : D0DB0132 AccurateRip v1 signature : F45FF22C AccurateRip v2 signature : BFE5F82A ->Accurately ripped (v2, confidence 1/1) Statistics Read error : 0 Jitter error (maybe fixed) : 0 Retry sector count : 0 Damaged sector count : 0
    Track 11 Filename : /Users/scottabercrombie/Desktop/untitled folder/11 - If I Were a Boy.flac Pre-gap length : 00:01:62
    Track gain : -5.70 dB Peak : 0.996338 CRC32 hash (test run) : 57209A13 CRC32 hash : 57209A13 CRC32 hash (skip zero) : 30790F96 AccurateRip v1 signature : 6596A004 AccurateRip v2 signature : D027E1E8 ->Accurately ripped (v2, confidence 1/1) Statistics Read error : 0 Jitter error (maybe fixed) : 0 Retry sector count : 0 Damaged sector count : 0
    Track 12 Filename : /Users/scottabercrombie/Desktop/untitled folder/12 - Pumpkin's Delight.flac Pre-gap length : 00:01:62
    Track gain : -5.03 dB Peak : 0.996979 CRC32 hash (test run) : 7EC46B8B CRC32 hash : 7EC46B8B CRC32 hash (skip zero) : 8F80AE85 AccurateRip v1 signature : 50E66199 AccurateRip v2 signature : 07DC980C ->Accurately ripped (v2, confidence 1/1) Statistics Read error : 0 Jitter error (maybe fixed) : 0 Retry sector count : 0 Damaged sector count : 0
    Track 13 Filename : /Users/scottabercrombie/Desktop/untitled folder/13 - Juanita.flac Pre-gap length : 00:01:61
    Track gain : 0.12 dB Peak : 0.995483 CRC32 hash (test run) : 6E61CB32 CRC32 hash : 6E61CB32 CRC32 hash (skip zero) : DAE4F7FD AccurateRip v1 signature : D5A6FD4D AccurateRip v2 signature : 23C63F18 ->Accurately ripped (v2, confidence 1/1) Statistics Read error : 0 Jitter error (maybe fixed) : 0 Retry sector count : 0 Damaged sector count : 0
    No errors occurred
    End of status report
    -----BEGIN XLD SIGNATURE-----mf5Q.WxVrKYBcZ_yOwJXMRcNQfnjn4.ocTWDWybq1E2kkkUtjToEJa_Tk9P_wAHGUZCS8uyo2LZw00jJ8_LsuE.HvtfW2v_LpYLpLAG-----END XLD SIGNATURE-----

    Содержание индексной карты (.CUE)

    TITLE "Gathering Call"PERFORMER "Matt Wilson Quartet & John Medeski"REM GENRE "Jazz"REM DATE "2013"REM DISCID A30CE70DFILE "01 - Main Stem.wav" WAVE TRACK 01 AUDIO TITLE "Main Stem" ISRC USME31303302 FLAGS DCP INDEX 01 00:00:00 TRACK 02 AUDIO TITLE "Some Assembly Required" ISRC USME31303303 FLAGS DCP INDEX 00 02:43:37FILE "02 - Some Assembly Required.wav" WAVE INDEX 01 00:00:00 TRACK 03 AUDIO TITLE "Dancing Waters" ISRC USME31303304 FLAGS DCP INDEX 00 04:41:50FILE "03 - Dancing Waters.wav" WAVE INDEX 01 00:00:00 TRACK 04 AUDIO TITLE "Get Over, Get Off and Get On" ISRC USME31303305 FLAGS DCP INDEX 00 03:42:33FILE "04 - Get Over, Get Off and Get On.wav" WAVE INDEX 01 00:00:00 TRACK 05 AUDIO TITLE "Barack Obama" ISRC USME31303306 FLAGS DCP INDEX 00 05:27:49FILE "05 - Barack Obama.wav" WAVE INDEX 01 00:00:00 TRACK 06 AUDIO TITLE "Gathering Call" ISRC USME31303307 FLAGS DCP INDEX 00 04:33:30FILE "06 - Gathering Call.wav" WAVE INDEX 01 00:00:00 TRACK 07 AUDIO TITLE "You Dirty" ISRC USME31303308 FLAGS DCP INDEX 00 01:45:08FILE "07 - You Dirty.wav" WAVE INDEX 01 00:00:00 TRACK 08 AUDIO TITLE "Hope (For the Cause)" ISRC USME31303309 FLAGS DCP INDEX 00 05:22:06FILE "08 - Hope (For the Cause).wav" WAVE INDEX 01 00:00:00 TRACK 09 AUDIO TITLE "Dreamscape" ISRC USME31303310 FLAGS DCP INDEX 00 05:39:49FILE "09 - Dreamscape.wav" WAVE INDEX 01 00:00:00 TRACK 10 AUDIO TITLE "How Ya Going?" ISRC USME31303311 FLAGS DCP INDEX 00 01:26:39FILE "10 - How Ya Going?.wav" WAVE INDEX 01 00:00:00 TRACK 11 AUDIO TITLE "If I Were a Boy" ISRC USME31303312 FLAGS DCP INDEX 00 02:56:63FILE "11 - If I Were a Boy.wav" WAVE INDEX 01 00:00:00 TRACK 12 AUDIO TITLE "Pumpkin's Delight" ISRC USME31303313 FLAGS DCP INDEX 00 04:18:39FILE "12 - Pumpkin's Delight.wav" WAVE INDEX 01 00:00:00 TRACK 13 AUDIO TITLE "Juanita" ISRC USME31303314 FLAGS DCP INDEX 00 08:31:08FILE "13 - Juanita.wav" WAVE INDEX 01 00:00:00

    Об альбоме

    When he is not occupying the drum chair of one of dozens of bands that he is called upon to inject with his contagious effervescence, drummer Matt Wilson can be found leading his two bands, Arts & Crafts and the Matt Wilson Quartet. Both quartets feature stellar bassists, Arts & Crafts—Martin Wind and here, Chris Lightcap. Where the former employs the talents of pianist/organist Gary Versace, the Quartet sails without keys. That is, until Wilson invites John Medeski as a guest for the Quartet's fourth release.
    Following That's Gonna Leave A Mark (Palmetto, 2009), Wilson substituted cornetist Kirk Knuffke for Andrew DAngelo, pairing him with the drummer's alter ego, saxophonist Jeff Lederer. The band sounds more diverse here, able to expand in multiple directions, plus there is that Medeski fellow.
    Back in the day (the 1980s), Wilson and Medeski played in Boston's infamous Either/Orchestra, before the pianist formed the groove-happy improved band Medeski, Martin & Wood and Wilson became the in demand drummer for the likes of Lee Konitz, Dewey Redman, John Scofield, and Joe Lovano, to name just a few.
    Of the thirteen tracks, only six are Wilson originals. The drummer chose some lost gems by Duke Ellington—"Main Stem" and "You Dirty Dog," seemingly, in an attempt to play stump the contestant in a blindfold test. Medeski shows his trad-piano chops and Lederer sheds the Ayler-esque licks for more of those by Paul Gonzales. They mine a Blue Note Records' bluesy hard bop sound with Hugh Lawson's "Get Over, Get Off And Get On," a minor hit for Yusef Lateef in 1969. Medeski morphs from Duke to Horace Silver, to an ECM sound heard on the meditative Wilson's "Dancing Waters" and Butch Warren's "Barack Obama."
    This version of Wilson's Quartet draws on the band's multifaceted talents. Knuffke can deliver the most expressive breathy notes or punch skittering passages alongside Lederer's urbane horn; he draws from his love of both trad-jazz and the avant- garde. The saxophonist unleashes a release-the-hounds tenor call on Charlie Rouse's "Pumpkin's Delight" and an unvarnished soprano sound on "How Ya Going?."
    Less we forget, all this tumult is organized and arranged by Wilson, who can swing something as simple as a finger-snap, heard on Beyonc�'s "If I Were A Boy." (Mark Corroto, AllAboutJazz)

    Состав

    Matt Wilson - drums
    John Medeski - piano
    Chris Lightcap - bass
    Kirk Knuffke - cornet
    Jeff Lederer - saxophones (tenor, sopranino), clarinet
    Скачать .torrent

    Скачать торрент-файл бесплатно и на максимальной скорости!

    Как скачивать? · Что такое торрент? · Рейтинг и ограничения

    !ВНИМАНИЕ!
    Сайт не распространяет и не хранит электронные версии произведений, а занимается лишь лишь предоставлением доступа к создаваемому пользователями каталогу ссылок на торрент-файлы, которые содержат только списки хеш-сумм, убедительная просьба с жалобами обращаться напрямую к пользователю. Файлы для обмена на трекере предоставлены пользователями сайта, и администрация не несёт ответственности за их содержание. Просьба не заливать файлы, защищенные авторскими правами, а также файлы нелегального содержания!

    [Профиль] [ЛС]
    Показать сообщения:    
    Ответить на тему

    Текущее время: Сегодня, в 19:03

    Часовой пояс: GMT + 2



    Вы не можете начинать темы
    Вы не можете отвечать на сообщения
    Вы не можете редактировать свои сообщения
    Вы не можете удалять свои сообщения
    Вы не можете голосовать в опросах
    Вы не можете прикреплять файлы к сообщениям
    Вы не можете скачивать файлы