BitTorrentTracker PerecTracker.org
BitTorrentTracker PerecTracker.org
    
Регистрация  ·  Вход
 
 · 
Забыли пароль?

  • Мой Ангел-хранитель / My Guardian Angel (Мумтаз Йылдырымлар / Mumtaz Yildirimlar) [2016, Великобритания, триллер, WEB-DLRip] DVO (DeadSno & den904)

    Ответить на тему
     
    Автор Сообщение

    rechyn

    Создавать темы 22-Июн-2016 11:03

           

    [Цитировать]

    Мой Ангел-хранитель / My Guardian Angel
    Страна: Великобритания
    Жанр: триллер
    Год выпуска: 2016
    Продолжительность: 01:40:11
    Перевод: Любительский (двухголосый закадровый) DeadSno & den904
    Cубтитры: нет
    Оригинальная аудиодорожка: нет
    Режиссер: Мумтаз Йылдырымлар / Mumtaz Yildirimlar
    В ролях: Мария Фиггинс, Петра Брайант, Адриан Аннис, Това Ли, Льюис Боннучи, Холли Джейкобсон, Сильвана Маймоне, Харрисон Сансостри
    Описание: Когда родители 11 летней девочки-аутиста Ханны перевели её в новую школу, они сказали, что это способ начать всё с начала. Дело в том, что после гибели сестры-близнеца Ангелы, Ханна от отчаяния заперлась в себе, и вокруг неё стали происходить странные необъяснимые вещи…
    Сэмпл: http://multi-up.com/1106825
    Качество видео: WEB-DLRip
    Формат видео: AVI
    Видео: 720x384 (1.85:1), 25.000 fps, XviD ~1 227 kbps avg
    Аудио: 48.0 kHz, AC3 Dolby Digital, 3/2 (L,C,R,l,r) + LFE ch, ~384 kbps

    MediaInfo

    Format : AVI
    Format/Info : Audio Video Interleave
    File size : 1.37 GiB
    Duration : 1h 40mn
    Overall bit rate : 1 958 Kbps
    Writing application : VirtualDubMod 1.5.10.3 | www.virtualdub-fr.org || (build 2550/release)
    Video
    ID : 0
    Format : MPEG-4 Visual
    Format profile : Advanced Simple@L5
    Format settings, BVOP : Yes
    Format settings, QPel : No
    Format settings, GMC : No warppoints
    Format settings, Matrix : Custom
    Codec ID : XVID
    Codec ID/Hint : XviD
    Duration : 1h 40mn
    Bit rate : 1 564 Kbps
    Width : 720 pixels
    Height : 384 pixels
    Display aspect ratio : 1.85:1
    Frame rate : 25.000 fps
    Color space : YUV
    Chroma subsampling : 4:2:0
    Bit depth : 8 bits
    Scan type : Progressive
    Compression mode : Lossy
    Bits/(Pixel*Frame) : 0.226
    Stream size : 1.09 GiB (80%)
    Writing library : XviD 1.2.1 (UTC 2008-12-04)
    Audio
    ID : 1
    Format : AC-3
    Format/Info : Audio Coding 3
    Mode extension : CM (complete main)
    Format settings, Endianness : Big
    Codec ID : 2000
    Duration : 1h 40mn
    Bit rate mode : Constant
    Bit rate : 384 Kbps
    Channel count : 6 channels
    Channel positions : Front: L C R, Side: L R, LFE
    Sampling rate : 48.0 KHz
    Bit depth : 16 bits
    Compression mode : Lossy
    Stream size : 275 MiB (20%)
    Alignment : Split accross interleaves
    Interleave, duration : 40 ms (1.00 video frame)
    Interleave, preload duration : 500 ms

    Скриншот c названием фильма

    Скриншоты

    Скачать .torrent

    Скачать торрент-файл бесплатно и на максимальной скорости!

    Как скачивать? · Что такое торрент? · Рейтинг и ограничения

    !ВНИМАНИЕ!
    Сайт не распространяет и не хранит электронные версии произведений, а занимается лишь лишь предоставлением доступа к создаваемому пользователями каталогу ссылок на торрент-файлы, которые содержат только списки хеш-сумм, убедительная просьба с жалобами обращаться напрямую к пользователю. Файлы для обмена на трекере предоставлены пользователями сайта, и администрация не несёт ответственности за их содержание. Просьба не заливать файлы, защищенные авторскими правами, а также файлы нелегального содержания!


    _________________
    [Профиль] [ЛС]
    Показать сообщения:    
    Ответить на тему

    Текущее время: Сегодня, в 21:55

    Часовой пояс: GMT + 2



    Вы не можете начинать темы
    Вы не можете отвечать на сообщения
    Вы не можете редактировать свои сообщения
    Вы не можете удалять свои сообщения
    Вы не можете голосовать в опросах
    Вы не можете прикреплять файлы к сообщениям
    Вы не можете скачивать файлы